Today is a free download without charge Download

Полет бабочки / Серии: 1 из 4 (Николай Михайлов) [2013, Мелодрама, HDTVRip]

Reply to topic
 
Author
Message

Omen ®

Longevity: 8 years 11 months

Posts: 181086

Торрент-статистика

Post 20-Jan-2013 04:04

[Quote]

Полет бабочки Год выпуска: 2013
Производство: Россия, Украина, "Star Media"
Жанр: Мелодрама
Продолжительность: 00:45:00
Режиссёр: Николай Михайлов
В ролях: Борис Хвошнянский, Елена Радевич, Павел Баршак, Виктория Малекторович, София Стеценко, Константин Чернокрылюк, Станислав Боклан, Александр Кобзарь и другие.
Описание: В старом элитном доме селится молодая эффектная женщина Светлана с 10-летней дочкой Галей. Выясняется, что она сбежала из Парижа от своего бывшего французского мужа, который собирается отнять у нее дочку. У одного из соседей, известного антиквара Андрея Ковалевского есть сын, ровесник Галочки. Дети очень быстро находят общий язык, что сближает и их мам — Светлану и Ирину Ковалевскую. Вскоре Андрей, желая помочь несчастной соседке, берет ее на работу в свой антикварный салон. Это даст Светлане аргументы для французского суда, чтобы оставить дочь при себе. Отношения Ковалевского и Светланы очень быстро переходят в романтическое русло, что сразу же понимает Ирина. Обычный любовный треугольник? Вовсе нет! Так как в историю вмешается международный аферист, сотрудники ФСБ, якобы утраченный шедевр Казимира Малевича и обостряющееся при перевозбуждении заболевание сына Ковалевского.-Качество: HDTVRip [ HDTV 1080i by Дрек ]
Формат: AVI
Видео кодек: XviD
Аудио кодек: AC3
Видео: 720x400 (1.80:1), 25 fps, XviD MPEG-4 ~1955 kbps avg, 0.27 bit/pixel
Аудио: 48 kHz, AC3 Dolby Digital, 2/0 (L,R) ch, ~192.00 kbps avg

MI

General
Complete name : C:\Users\1\Desktop\Игры\Торренты\Полет_Бабочки_HDTVRip_by_Дрек\Полет_Бабочки_01_HDTVRip_by_Дрек.avi
Format : AVI
Format/Info : Audio Video Interleave
File size : 702 MiB
Duration : 45mn 29s
Overall bit rate : 2 157 Kbps
Writing application : VirtualDubModRus 1.5.10.2 (build 2542/release)
Writing library : VirtualDubMod build 2542/release
Video
ID : 0
Format : MPEG-4 Visual
Format profile : Advanced [email protected]
Format settings, BVOP : 2
Format settings, QPel : No
Format settings, GMC : No warppoints
Format settings, Matrix : Custom
Muxing mode : Packed bitstream
Codec ID : XVID
Codec ID/Hint : XviD
Duration : 45mn 29s
Bit rate : 1 955 Kbps
Width : 720 pixels
Height : 400 pixels
Display aspect ratio : 16:9
Frame rate : 25.000 fps
Color space : YUV
Chroma subsampling : 4:2:0
Bit depth : 8 bits
Scan type : Progressive
Compression mode : Lossy
Bits/(Pixel*Frame) : 0.272
Stream size : 636 MiB (91%)
Writing library : XviD 64
Audio
ID : 1
Format : AC-3
Format/Info : Audio Coding 3
Mode extension : CM (complete main)
Format settings, Endianness : Big
Codec ID : 2000
Duration : 45mn 29s
Bit rate mode : Constant
Bit rate : 192 Kbps
Channel(s) : 2 channels
Channel positions : Front: L R
Sampling rate : 48.0 KHz
Bit depth : 16 bits
Compression mode : Lossy
Stream size : 62.5 MiB (9%)
Alignment : Split accross interleaves
Interleave, duration : 40 ms (1.00 video frame)
Interleave, preload duration : 500 ms

Внимание. Раздача ведётся путём добавления новых серий

Внимание! Раздача ведётся путём добавления новых серий; при каждом добавлении создётся новый торрент. Чтобы начать докачку новой серии, пользователям необходимо сделать следующее:
(1) остановить скачивание,
(2) удалить старый торрент у себя из клиента (старые серии удалять не надо),
(3) скачать новый торрент и запустить его у себя в клиенте вместо старого, при этом указать клиенту путь в старую папку куда и должно происходить скачивание новых серий.
Ваш клиент при этом должен произвести хеширование (проверку) старой папки (если не производит сам - помогите ему сделать это), и будет докачивать только те серии которых у вас ещё нет. Старые серии при этом не удаляются, а продолжают раздаваться!
Eсли вы уже удалили старые серии, то предотвратить повторную закачку старых серий можно, отжав галочку в соответсвующих местах при запуске нового торрента. По возможности, желательно не удалять старые серии как можно дольше чтобы релизёр не столько продолжал раздавать старые серии, а смог сконцентрироваться на новых
Other forum [Profile] [PM]
Display posts from previous:    
Reply to topic

The time now is: Today 09:09

All times are GMT + 3 Hours



You cannot post new topics in this forum
You cannot reply to topics in this forum
You cannot edit your posts in this forum
You cannot delete your posts in this forum
You cannot vote in polls in this forum
You cannot attach files in this forum
You cannot download files in this forum