Today is a free download without charge Download

Цвет денег / The Color of Money (боевик, триллер, криминал) [1986, США, боевик, триллер, криминал, BDRip 1080p] Dub + 2xMVO (НТВ+, R5) + AVO (Михалев) + Original + subs (Rus, Eng)

Reply to topic
 
Author
Message

Omen ®

Longevity: 8 years 5 months

Posts: 181087

Торрент-статистика

Post 20-Jan-2013 04:04

[Quote]

Цвет денег / The Color of Money- Год выпуска: 1986
Страна: США
Жанр: боевик, триллер, криминал
Продолжительность: 01:59:39
Перевод 1: Профессиональный (полное дублирование)
Перевод 1: Профессиональный (многоголосый, закадровый) НТВ+
Перевод 1: Профессиональный (многоголосый, закадровый) R5
Перевод 2: Авторский одноголосый А.Михалев
Оригинальная звуковая дорожка: English
Cубтитры: Russian (x2), English-Режиссер: Мартин Скорсезе / Martin Scorsese
В ролях: Пол Ньюман, Том Круз, Мэри Элизабет Мастрантонио, Хелен Шейвер, Джон Туртурро, Билл Коббс, Robert Agins, Элвин Анастасия, Randall Arney, Элизабет Бракко
Описание: Быстрому Эдди, виртуозному игроку в бильярд, нет равных за зеленым столом. Для других это развлечение, для него - серьезная работа и большие деньги. У него появляется конкурент, новичок Винц, у которого есть все, что нужно для победы: талант, везение и поддержка обворожительной подруги, но ему не хватает почерка мастера.
Эдди становится его наставником и учит восходящую звезду тонкостям большой игры. На зеленом сукне, цвета денег, один на один с судьбой...-Релиз: by Bloodfighter
Формат: MKV
Видео: 1920x1038 at 23.976 fps, [email protected], 2pass, ~12500 kbps avg
Аудио #1: Russian: 48 kHz, AC3, 2/0 (L,R) ch, ~192.00 kbps avg |Дубляж|
Аудио #2: Russian: 48 kHz, AC3, 2/0 (L,R) ch, ~192.00 kbps avg |Многоголосый закадровый, НТВ+|
Аудио #3: Russian: 48 kHz, AC3, 3/2 (L,C,R,l,r) + LFE ch, ~384.00 kbps avg |Многоголосый закадровый, R5|
Аудио #4: Russian: 48 kHz, DTS, 3/2 (L,C,R,l,r) + LFE ch, ~1509.00 kbps avg |Одноголосый закадровый, А.Михалев|
Аудио #5: Ukrainian: 48 kHz, AC3, 2/0 (L,R) ch, ~192.00 kbps avg |Многоголосый закадровый|
Аудио #6: English: 48 kHz, DTS, 3/2 (L,C,R,l,r) + LFE ch, ~1509.00 kbps avg
Семпл
-

MInfo


Format : Matroska
Format version : Version 2
File size : 13.8 GiB
Duration : 1h 59mn
Overall bit rate : 16.5 Mbps
Movie name : HDCLUB present "The Color of Money (1986)"
Encoded date : UTC 2012-12-27 16:33:09
Writing application : mkvmerge v5.6.0 ('Kenya Kane') built on May 27 2012 16:44:04
Writing library : libebml v1.2.3 + libmatroska v1.3.0
Video
ID : 1
Format : AVC
Format/Info : Advanced Video Codec
Format profile : [email protected]
Format settings, CABAC : Yes
Format settings, ReFrames : 4 frames
Codec ID : V_MPEG4/ISO/AVC
Duration : 1h 59mn
Bit rate : 12.5 Mbps
Width : 1 920 pixels
Height : 1 038 pixels
Display aspect ratio : 1.85:1
Frame rate mode : Constant
Frame rate : 23.976 fps
Color space : YUV
Chroma subsampling : 4:2:0
Bit depth : 8 bits
Scan type : Progressive
Bits/(Pixel*Frame) : 0.262
Stream size : 10.2 GiB (74%)
Title : The.Color.of.Money.1986.1080p.Bluray.4xRus.Ukr.Eng.HDCLUB
Writing library : x264 core 129 r2230 1cffe9f
Encoding settings : cabac=1 / ref=4 / deblock=1:-3:-3 / analyse=0x3:0x133 / me=umh / subme=11 / psy=1 / psy_rd=1.10:0.00 / mixed_ref=1 / me_range=48 / chroma_me=1 / trellis=2 / 8x8dct=1 / cqm=0 / deadzone=21,11 / fast_pskip=0 / chroma_qp_offset=-2 / threads=12 / lookahead_threads=2 / sliced_threads=0 / nr=0 / decimate=1 / interlaced=0 / bluray_compat=0 / constrained_intra=0 / bframes=7 / b_pyramid=2 / b_adapt=2 / b_bias=0 / direct=3 / weightb=1 / open_gop=0 / weightp=2 / keyint=250 / keyint_min=23 / scenecut=40 / intra_refresh=0 / rc_lookahead=60 / rc=2pass / mbtree=0 / bitrate=12500 / ratetol=1.0 / qcomp=0.60 / qpmin=0 / qpmax=69 / qpstep=4 / cplxblur=20.0 / qblur=0.5 / vbv_maxrate=50000 / vbv_bufsize=62500 / nal_hrd=none / ip_ratio=1.40 / pb_ratio=1.30 / aq=1:0.80
Language : English
Default : Yes
Forced : Yes
Audio #1
ID : 2
Format : AC-3
Format/Info : Audio Coding 3
Mode extension : CM (complete main)
Format settings, Endianness : Big
Codec ID : A_AC3
Duration : 1h 59mn
Bit rate mode : Constant
Bit rate : 192 Kbps
Channel(s) : 2 channels
Channel positions : Front: L R
Sampling rate : 48.0 KHz
Bit depth : 16 bits
Compression mode : Lossy
Stream size : 164 MiB (1%)
Title : DD 2.0 @ 192 kbps - Dubbed
Language : Russian
Default : Yes
Forced : Yes
Audio #2
ID : 3
Format : AC-3
Format/Info : Audio Coding 3
Mode extension : CM (complete main)
Format settings, Endianness : Big
Codec ID : A_AC3
Duration : 1h 59mn
Bit rate mode : Constant
Bit rate : 192 Kbps
Channel(s) : 2 channels
Channel positions : Front: L R
Sampling rate : 48.0 KHz
Bit depth : 16 bits
Compression mode : Lossy
Stream size : 164 MiB (1%)
Title : DD 2.0 @ 192 kbps - MVO [NTV+]
Language : Russian
Default : No
Forced : No
Audio #3
ID : 4
Format : AC-3
Format/Info : Audio Coding 3
Mode extension : CM (complete main)
Format settings, Endianness : Big
Codec ID : A_AC3
Duration : 1h 59mn
Bit rate mode : Constant
Bit rate : 384 Kbps
Channel(s) : 6 channels
Channel positions : Front: L C R, Side: L R, LFE
Sampling rate : 48.0 KHz
Bit depth : 16 bits
Compression mode : Lossy
Stream size : 329 MiB (2%)
Title : DD 5.1 @ 384 kbps - MVO [R5]
Language : Russian
Default : No
Forced : No
Audio #4
ID : 5
Format : DTS
Format/Info : Digital Theater Systems
Mode : 16
Format settings, Endianness : Big
Codec ID : A_DTS
Duration : 1h 59mn
Bit rate mode : Constant
Bit rate : 1 509 Kbps
Channel(s) : 6 channels
Channel positions : Front: L C R, Side: L R, LFE
Sampling rate : 48.0 KHz
Bit depth : 24 bits
Compression mode : Lossy
Stream size : 1.26 GiB (9%)
Title : DTS 5.1 @ 1509 kbps - Auto's [Mihaliov]
Language : Russian
Default : No
Forced : No
Audio #5
ID : 6
Format : AC-3
Format/Info : Audio Coding 3
Mode extension : CM (complete main)
Format settings, Endianness : Big
Codec ID : A_AC3
Duration : 1h 59mn
Bit rate mode : Constant
Bit rate : 192 Kbps
Channel(s) : 2 channels
Channel positions : Front: L R
Sampling rate : 48.0 KHz
Bit depth : 16 bits
Compression mode : Lossy
Stream size : 164 MiB (1%)
Title : DD 2.0 @ 192 kbps - MVO
Language : Ukrainian
Default : No
Forced : No
Audio #6
ID : 7
Format : DTS
Format/Info : Digital Theater Systems
Mode : 16
Format settings, Endianness : Big
Codec ID : A_DTS
Duration : 1h 59mn
Bit rate mode : Constant
Bit rate : 1 509 Kbps
Channel(s) : 6 channels
Channel positions : Front: L C R, Side: L R, LFE
Sampling rate : 48.0 KHz
Bit depth : 24 bits
Compression mode : Lossy
Stream size : 1.26 GiB (9%)
Title : DTS 5.1 @ 1509 kbps - Original
Language : English
Default : No
Forced : No
Text #1
ID : 8
Format : UTF-8
Codec ID : S_TEXT/UTF8
Codec ID/Info : UTF-8 Plain Text
Title : R5
Language : Russian
Default : No
Forced : No
Text #2
ID : 9
Format : UTF-8
Codec ID : S_TEXT/UTF8
Codec ID/Info : UTF-8 Plain Text
Language : Russian
Default : No
Forced : No
Text #3
ID : 10
Format : UTF-8
Codec ID : S_TEXT/UTF8
Codec ID/Info : UTF-8 Plain Text
Language : English
Default : No
Forced : No
Menu
00:00:00.000 : en:Main Titles
00:04:50.081 : en:Grendel's Attack
00:06:09.702 : en:Aftermath
00:09:37.785 : en:Arrival of Beowulf
00:14:19.442 : en:Let's Drink
00:18:26.188 : en:Queen's Song
00:21:46.971 : enrepare to Face the Monster
00:26:19.494 : en:Grendel Attacks
00:32:21.856 : en:Grendel Is Dead
00:37:23.907 : en:Revenge
00:39:11.556 : en:It's Not Grendel
00:46:40.005 : en:Into the Beast's Lair
00:53:57.943 : en:Curse Is Lifted?
01:03:40.275 : en:King Beowulf
01:07:08.314 : en:The Song of Beowulf
01:10:18.713 : en:Son of Beowulf
01:19:59.086 : en:Into Battle
01:22:10.175 : en:Into the Beast's Lair Again
01:28:33.015 : en:Riding the Dragon
01:35:57.335 : en:Queen and Mistress in Danger
01:39:00.685 : en:Goodbye to Father and Son
01:53:19.792 : en:A New Beginning
01:54:59.100 : en:End Titles
01:56:08.377 : en:

-
Цитата:

*** Сохранены оригинальные чаптеры как на Blu-ray.
*** За исходники дорог №1-3 спасибо satnews.
*** За исходник дороги №5 спасибо Romario_O с Hurtom, - в дороге присутствовало много оригинальных вставок. Devlad исправил частотную разницу между ними и самой дорогой.
Other forum [Profile] [PM]
Display posts from previous:    
Reply to topic

The time now is: Today 03:39

All times are GMT + 3 Hours



You cannot post new topics in this forum
You cannot reply to topics in this forum
You cannot edit your posts in this forum
You cannot delete your posts in this forum
You cannot vote in polls in this forum
You cannot attach files in this forum
You cannot download files in this forum