Today is a free download without charge Download

Я ухожу - не плачь / Country Strong (Шана Фест) [2010 г., драма, музыка, BDRip1080p]

Reply to topic
 
Author
Message

Delia ®

Gender:

Longevity: 10 years

Posts: 1821

Торрент-статистика

Post 03-May-2011 09:41

[Quote]

Я ухожу - не плачь Country Strong Год выпуска: 2010
Страна: США
Жанр: драма, музыка
Продолжительность: 01:57:08
Перевод: Профессиональный (многоголосый, закадровый)
Режиссер: Шана Фест
Продюссер: Тоби Магуайр, Дженно Топпинг, Джордж Флинн
Сценарий: Шана Фест
Бюджет: $15 000 000
Премьера в мире: 8 ноября 2010
В ролях: Гвинет Пэлтроу, Тим МакГроу, Гаррет Хедлунд, Тина Уайт, Лейтон Мистер, Маршалл Чэпман, Лари Уайт, Джереми Чайлдз, Дж.Д. Паркер, Лиза Стюарт
Описание: Cобытия развиваются вокруг молодого восходящего певца Бо, который увлекается кантри-певицей Келли Кантер, чья слава уже несколько померкла. Они вместе с менеджером, и по совместительству, мужем певицы Эдом, а также прекрасной поп-дивой Чилес Стэнтон отправляются в турне, пытаясь возродить былую популярность. Но романтические хитросплетения и старые грехи угрожают разрушить жизнь каждого из героев.
Качество:BDRip1080p ( Blu-Ray 1080p)
Формат: MKV
Видео кодек: H.264
Аудио кодек: AC3
Видео:English, 4574 Кбит/сек, 1920*800 (2,40:1), в 23,976 кадр/сек, AVC ([email protected])
Аудио: Russian, 448 Кбит/сек, 48,0 КГц, 16 бит, 6 каналов, AC-3
Аудио:English, 320 Кбит/сек, 48,0 КГц, 16 бит, 6 каналов, AC-3| с комментариями
Аудио:English, 320 Кбит/сек, 48,0 КГц, 16 бит, 6 каналов, AC-3 на народ.ру
Субтитры:Еnglish, VobSub

MediaInfo:

Общее
Уникальный идентификатор : 252348818454673658517764706587128107740 (0xBDD89D55B8C1BB3F9F231C8E586012DC)
Полное имя : E:\торрент\Country Strong (2010 )BDRip 1080p.mkv
Формат : Matroska
Размер файла : 4,37 Гбайт
Продолжительность : 1 ч. 57 м.
Общий поток : 5344 Кбит/сек
Дата кодирования : UTC 2011-05-03 04:22:33
Программа кодирования : mkvmerge v4.7.0 ('Just Like You Imagined') built on Apr 21 2011 01:13:14
Библиотека кодирования : libebml v1.2.0 + libmatroska v1.1.0
Видео
Идентификатор : 1
Формат : AVC
Формат/Информация : Advanced Video Codec
Профиль формата : [email protected]
Параметр CABAC формата : Да
Параметр ReFrames формата : 8 кадров
Идентификатор кодека : V_MPEG4/ISO/AVC
Продолжительность : 1 ч. 57 м.
Битрейт : 4574 Кбит/сек
Ширина : 1920 пикс.
Высота : 800 пикс.
Соотношение сторон : 2,40:1
Частота кадров : 23,976 кадр/сек
Цветовое пространство : YUV
Подвыборка цветности : 4:2:0
Битовая глубина : 8 бит
Тип развёртки : Прогрессивная
Бит/(Пиксели*Кадры) : 0.124
Размер потока : 3,66 Гбайт (84%)
Заголовок : FREEISLAND.HD
Библиотека кодирования : x264 core 114 r1924 08d04a4
Настройки программы : cabac=1 / ref=8 / deblock=1:-3:-3 / analyse=0x3:0x133 / me=umh / subme=7 / psy=1 / psy_rd=1.00:0.00 / mixed_ref=1 / me_range=32 / chroma_me=1 / trellis=2 / 8x8dct=1 / cqm=0 / deadzone=21,11 / fast_pskip=0 / chroma_qp_offset=-2 / threads=6 / sliced_threads=0 / nr=0 / decimate=1 / interlaced=0 / constrained_intra=0 / bframes=4 / b_pyramid=2 / b_adapt=1 / b_bias=0 / direct=1 / weightb=1 / open_gop=0 / weightp=2 / keyint=250 / keyint_min=24 / scenecut=40 / intra_refresh=0 / rc_lookahead=50 / rc=2pass / mbtree=1 / bitrate=4574 / ratetol=1.0 / qcomp=0.60 / qpmin=0 / qpmax=69 / qpstep=4 / cplxblur=20.0 / qblur=0.5 / ip_ratio=1.40 / aq=1:1.00
Язык : English
Аудио #1
Идентификатор : 2
Формат : AC-3
Формат/Информация : Audio Coding 3
Расширение режима : CM (complete main)
Идентификатор кодека : A_AC3
Продолжительность : 1 ч. 57 м.
Вид битрейта : Постоянный
Битрейт : 448 Кбит/сек
Каналы : 6 каналов
Расположение каналов : Front: L C R, Side: L R, LFE
Частота : 48,0 КГц
Битовая глубина : 16 бит
Метод сжатия : С потерями
Размер потока : 375 Мбайт (8%)
Язык : Russian
Аудио #2
Идентификатор : 3
Формат : AC-3
Формат/Информация : Audio Coding 3
Расширение режима : CM (complete main)
Идентификатор кодека : A_AC3
Продолжительность : 1 ч. 57 м.
Вид битрейта : Постоянный
Битрейт : 320 Кбит/сек
Каналы : 6 каналов
Расположение каналов : Front: L C R, Side: L R, LFE
Частота : 48,0 КГц
Битовая глубина : 16 бит
Метод сжатия : С потерями
Размер потока : 268 Мбайт (6%)
Язык : English
Текст
Идентификатор : 4
Формат : VobSub
Режим смешивания : zlib
Идентификатор кодека : S_VOBSUB
Идентификатор кодека/Информация : The same subtitle format used on DVDs
Язык : English
Меню
00:00:00.000 : en:00:00:00.000
00:09:46.669 : en:00:09:46.669
00:17:50.486 : en:00:17:50.486
00:22:43.821 : en:00:22:43.821
00:29:56.044 : en:00:29:56.044
00:36:39.739 : en:00:36:39.739
00:42:06.899 : en:00:42:06.899
00:49:07.194 : en:00:49:07.194
00:56:06.989 : en:00:56:06.989
01:05:55.702 : en:01:05:55.702
01:10:31.310 : en:01:10:31.310
01:15:47.293 : en:01:15:47.293
01:21:21.627 : en:01:21:21.627
01:27:19.067 : en:01:27:19.067
01:35:15.835 : en:01:35:15.835
01:43:29.787 : en:01:43:29.787

Скриншоты

       

_________________
Человек – это канат, натянутый между животным и сверхчеловеком, – канат над пропастью.
В человеке ценно то, что он мост, а не цель. Фридрих Ницше


Last edited by Delia on 2011-08-27 21:03; edited 6 times in total
Other forum [Profile] [PM]
Display posts from previous:    
Reply to topic

The time now is: Today 19:32

All times are GMT + 3 Hours



You cannot post new topics in this forum
You cannot reply to topics in this forum
You cannot edit your posts in this forum
You cannot delete your posts in this forum
You cannot vote in polls in this forum
You cannot attach files in this forum
You cannot download files in this forum