Today is a free download without charge Download

Искупление (Евгений Малков) [2010 г.] (Боевик, драма) [SATRip] [internal release]

Reply to topic
 
Author
Message

nsa1977 ®

Gender:

Longevity: 10 years

Posts: 1470

Location: Пенза

Торрент-статистика

Post 03-May-2011 00:31

[Quote]

Искупление Год выпуска: 2010
Жанр: Боевик, драма
Продолжительность: 01:27:22
Режиссер: Евгений Малков-В ролях: Владимир Вдовиченков, Ольга Филиппова, Рина Гришина, Наталья Бурмистрова (II),
Кира Кауфман, Дарья Чудакова, Ирина Бокалова, Михаил Долгинин, Геннадий Алексеев, Дмитрий Поддубный-Описание: В глухой деревне в далеком лесу стоит церковь. Служит в ней отец Алексий, а
прислуживает ему некто Демидов — странный человек, физически очень сильный, еще не старый,
замкнутый, молчаливый и нелюдимый. Демидов — бывший воин-интернационалист. Он вернулся с
войны и дал себе обещание не брать в руки оружия! Теперь он мучается неразрешимым вопросом:
простить себя, забыть все, что видел и пережил на войне, или все это было страшным грехом? Постом
и молитвой он пытается искупить грехи, но когда его помощь окажется единственным шансом на
спасение для беззащитных женщин, ему придется нарушить обет мирной жизни…-Качество: SATRip
Формат: AVI
Видео кодек: XviD
Аудио кодек: MP3
Видео: 720x384 (1.88:1), 25 fps, XviD MPEG-4 ~2030 kbps avg, 0.29 bit/pixel
Аудио: 48 kHz, MPEG Layer 3, 2 ch, ~192.00 kbps avg

MediaInfo

General
Complete name : \\Server\Video (E)\Релизы\Iskuplenie.SATrip.[/*spam*/].avi
Format : AVI
Format/Info : Audio Video Interleave
File size : 1.36 GiB
Duration : 1h 27mn
Overall bit rate : 2 237 Kbps
Movie name : Искупление
Writing application : VirtualDubMod 1.5.10.2 (build 2540/release)
Copyright : rip by UrbanVampire
Video
ID : 0
Format : MPEG-4 Visual
Format profile : Advanced [email protected]
Format settings, BVOP : Yes
Format settings, QPel : No
Format settings, GMC : No warppoints
Format settings, Matrix : Default (H.263)
Muxing mode : Packed bitstream
Codec ID : XVID
Codec ID/Hint : XviD
Duration : 1h 27mn
Bit rate : 2 099 Kbps
Width : 704 pixels
Height : 384 pixels
Display aspect ratio : 16:9
Frame rate : 25.000 fps
Color space : YUV
Chroma subsampling : 4:2:0
Bit depth : 8 bits
Scan type : Progressive
Bits/(Pixel*Frame) : 0.311
Stream size : 1.28 GiB (94%)
Writing library : XviD 1.2.1 (UTC 2008-12-04)
Audio
ID : 1
Format : MPEG Audio
Format version : Version 1
Format profile : Layer 3
Mode : Joint stereo
Mode extension : MS Stereo
Codec ID : 55
Codec ID/Hint : MP3
Duration : 1h 27mn
Bit rate mode : Constant
Bit rate : 128 Kbps
Channel(s) : 2 channels
Sampling rate : 48.0 KHz
Stream size : 80.0 MiB (6%)
Alignment : Aligned on interleaves
Interleave, duration : 40 ms (1.00 video frame)
Interleave, preload duration : 504 ms
Language : Russian
    

_________________


Last edited by nsa1977 on 2012-03-16 21:54; edited 3 times in total
Other forum [Profile] [PM]
Display posts from previous:    
Reply to topic

The time now is: Today 03:32

All times are GMT + 3 Hours



You cannot post new topics in this forum
You cannot reply to topics in this forum
You cannot edit your posts in this forum
You cannot delete your posts in this forum
You cannot vote in polls in this forum
You cannot attach files in this forum
You cannot download files in this forum