Today is a free download without charge Download

В бой идут одни «старики» (Леонид Быков) (Черно-белый) [1973 г., Драма, военный, BDRip 720p]

Reply to topic
 
Author
Message

zeke ®

Gender:

Longevity: 11 years

Posts: 66

Торрент-статистика

Post 02-May-2011 22:30

[Quote]

В бой идут одни «старики»- Год выпуска: 1973
Страна: СССР
Жанр: Драма, военный
Продолжительность: 01:31:29
Режиссер: Леонид Быков
Сценарий: Леонид Быков, Евгений Оноприенко, Александр Сацкий
Перевод: Не требуется
Субтитры: Отсутствуют
В ролях: Леонид Быков, Сергей Подгорный, Сергей Иванов, Рустам Сагдуллаев, Евгения Симонова, Ольга Матешко, Владимир Талашко, Алексей Смирнов, Виктор Мирошниченко, Григорий Гладий
Описание: Эта эскадрилья стала «поющей» — так капитан Титаренко подбирал себе новичков. Его «старикам» было не больше двадцати, но «желторотиков», пополнение из летных училищ ускоренного выпуска, в бой все равно, по возможности, не пускали.
Им еще многое предстояло испытать — и жар боев, и радость первой победы над врагом, и величие братства, скрепленного кровью, и первую любовь, и горечь утраты… И настанет день, когда по команде «в бой идут одни старики» бывшие желторотики бросятся к своим самолетам…
Качество: BDRip 720p
Контейнер: MKV
Видео кодек: H.264
Аудио кодек: AC3
Видео: 1280x928 (16:9), 24.000 fps, 10600 Kbps, H.264, Profile [email protected]
Аудио: AC3, Russian, 5.1 channels, 640kbps, 16 bits, 48.0 KHz

MediaInfo

General
Unique ID : 233604515513238336905970657122111113940 (0xAFBE97D924D1BE61A5E71AB0CAA6CAD4)
Complete name : E:В бой идут одни «старики» [BDRip] (1973).mkv
Format : Matroska
File size : 7.19 GiB
Duration : 1h 31mn
Overall bit rate : 11.3 Mbps
Encoded date : UTC 2011-05-02 15:40:09
Writing application : mkvmerge v4.5.0 ('Speed of Light') сборка от Feb 1 2011 02:10:32
Writing library : libebml v1.2.0 + libmatroska v1.1.0
Video
ID : 1
Format : AVC
Format/Info : Advanced Video Codec
Format profile : [email protected]
Format settings, CABAC : Yes
Format settings, ReFrames : 4 frames
Format settings, GOP : N=1
Codec ID : V_MPEG4/ISO/AVC
Duration : 1h 31mn
Bit rate mode : Variable
Bit rate : 10.6 Mbps
Maximum bit rate : 50.0 Mbps
Width : 1 280 pixels
Height : 928 pixels
Display aspect ratio : 1.379
Frame rate : 24.000 fps
Color space : YUV
Chroma subsampling : 4:2:0
Bit depth : 8 bits
Scan type : Progressive
Bits/(Pixel*Frame) : 0.371
Stream size : 6.64 GiB (92%)
Title : Freeisland.HD
Writing library : x264 core 114 r1924 08d04a4
Encoding settings : cabac=1 / ref=4 / deblock=1:-1:-1 / analyse=0x3:0x133 / me=hex / subme=8 / psy=1 / psy_rd=1.00:0.00 / mixed_ref=1 / me_range=16 / chroma_me=1 / trellis=1 / 8x8dct=1 / cqm=0 / deadzone=21,11 / fast_pskip=1 / chroma_qp_offset=-2 / threads=2 / sliced_threads=0 / nr=0 / decimate=1 / interlaced=0 / constrained_intra=0 / bframes=5 / b_pyramid=2 / b_adapt=2 / b_bias=0 / direct=3 / weightb=1 / open_gop=0 / weightp=2 / keyint=250 / keyint_min=24 / scenecut=40 / intra_refresh=0 / rc_lookahead=50 / rc=2pass / mbtree=1 / bitrate=10574 / ratetol=1.0 / qcomp=0.60 / qpmin=0 / qpmax=69 / qpstep=4 / cplxblur=20.0 / qblur=0.5 / vbv_maxrate=50000 / vbv_bufsize=50000 / nal_hrd=vbr / ip_ratio=1.40 / aq=1:1.00
Language : Russian
Audio
ID : 2
Format : AC-3
Format/Info : Audio Coding 3
Mode extension : CM (complete main)
Codec ID : A_AC3
Duration : 1h 31mn
Bit rate mode : Constant
Bit rate : 640 Kbps
Channel(s) : 6 channels
Channel positions : Front: L C R, Side: L R, LFE
Sampling rate : 48.0 KHz
Bit depth : 16 bits
Compression mode : Lossy
Stream size : 419 MiB (6%)
Title : AC3, Russian, 5.1 channels, 640 kbps, 16 bits, 48.0 KHz
Language : Russian
Релиз от:

Скриншоты

       

_________________
|LOST|


Last edited by zeke on 2011-05-04 14:46; edited 2 times in total
Other forum [Profile] [PM]
Display posts from previous:    
Reply to topic

The time now is: Today 14:03

All times are GMT + 3 Hours



You cannot post new topics in this forum
You cannot reply to topics in this forum
You cannot edit your posts in this forum
You cannot delete your posts in this forum
You cannot vote in polls in this forum
You cannot attach files in this forum
You cannot download files in this forum