Today is a free download without charge Download

David Bowie - Where Are We Now [2013, Rock, HDTV 1080i]

Reply to topic
 
Author
Message

Omen ®

Longevity: 8 years 3 months

Posts: 181087

Торрент-статистика

Post 19-Jan-2013 13:32

[Quote]

David Bowie - Where Are We Now
Жанр: Rock
Продолжительность: 00:04:34
Год выпуска: 2013
Качество: HDTV 1080i
Контейнер: MPG
Видео кодек: H.264
Аудио кодек: AAC
Видео: MPEG4 Video (H264) 1920x1080 29.97fps Bitrate: 3 736 Kbps
Аудио: AAC 44100Hz stereo 1411kbps

Отчёт MediaInfo / BDInfo

GeneralComplete name : David Bowie - Where Are We Now (1920x1080).mp4Format : MPEG-4Format profile : Base Media / Version 2Codec ID : mp42File size : 128 MiBDuration : 4mn 34sOverall bit rate mode : VariableOverall bit rate : 3 930 KbpsEncoded date : UTC 2013-01-07 19:44:48Tagged date : UTC 2013-01-07 19:44:48gsst : 0gstd : 274203gssd : B400F7629HH1357931448301396gshh :
VideoID : 1Format : AVCFormat/Info : Advanced Video CodecFormat profile : [email protected] settings, CABAC : YesFormat settings, ReFrames : 1 frameCodec ID : avc1Codec ID/Info : Advanced Video CodingDuration : 4mn 34sBit rate : 3 736 KbpsMaximum bit rate : 9 948 KbpsWidth : 1 920 pixelsHeight : 1 080 pixelsDisplay aspect ratio : 16:9Frame rate mode : ConstantFrame rate : 29.970 fpsColor space : YUVChroma subsampling : 4:2:0Bit depth : 8 bitsScan type : ProgressiveBits/(Pixel*Frame) : 0.060Stream size : 122 MiB (95%)Tagged date : UTC 2013-01-07 19:44:49
AudioID : 2Format : AACFormat/Info : Advanced Audio CodecFormat profile : LCCodec ID : 40Duration : 4mn 34sBit rate mode : VariableBit rate : 192 KbpsMaximum bit rate : 201 KbpsChannel(s) : 2 channelsChannel positions : Front: L RSampling rate : 44.1 KHzCompression mode : LossyStream size : 6.27 MiB (5%)Title : IsoMedia File Produced by Google, 5-11-2011Encoded date : UTC 2013-01-07 19:44:49Tagged date : UTC 2013-01-07 19:44:49

Скриншоты




Other forum [Profile] [PM]
Display posts from previous:    
Reply to topic

The time now is: Today 09:43

All times are GMT + 3 Hours



You cannot post new topics in this forum
You cannot reply to topics in this forum
You cannot edit your posts in this forum
You cannot delete your posts in this forum
You cannot vote in polls in this forum
You cannot attach files in this forum
You cannot download files in this forum