Today is a free download without charge Download

Такси / Таксі (сезон 2, 1-5 серии из 50) (2013) SATRip [Обновляемая]

Reply to topic
 
Author
Message

Omen ®

Longevity: 9 years 1 month

Posts: 181086

Торрент-статистика

Post 19-Jan-2013 12:36

[Quote]

-Такси / Таксі (сезон 2, 1-5 серии из 50) (2013) SATRip- Русское название: Такси
Оригинальное название: Таксі
Год выпуска: 2013
Производство: Украина, «FILM.UA Production»
Жанр: Комедия, ситком
Режиссер: Антон Щербаков
Сценарий: Антон Лирник, Андрей Забияка
Актеры: Сергей Белоголовцев, Сергей Рост, Екатерина Кистень, Егор Крутоголов, Павел Галич, Роман Хан
Описание фильма:События сериала разворачиваются вокруг службы такси и жизнь ее колоритных сотрудников: водители, механики и руководитель станут участниками невероятных и веселых историй.
Практически все работники службы пришли сюда «только на время», а оставшиеся «несколько дольше, чем планировали». «Старожил» гаража Алексей, начинающий актер Эдик, дизайнер Елена, боксер Егор, кореец Ван и странный человек многосложный работают под руководством хитрого и опытного бюрократа Валерика, дружат, ссорятся, попадают в забавные ситуации и вместе с ним выпутываются.

Продолжительность: ~ 00:24:00 серия
Качество видео: SATRip
Видеокодек: XviD
Битрейт видео: ~ 1870 Кбит/сек
Размер кадра: 720x400
Аудио: Русский, МР3, 2 ch, 192 Кбит/с

Внимание! Раздача ведётся путём добавления новых серий. Описание обновления торрента:

Внимание!
Раздача ведётся путём добавления новых серий; при каждом добавлении создётся новый торрент. Чтобы начать докачку новой серии, пользователям необходимо сделать следующее:
(1) остановить скачивание,
(2) удалить старый торрент у себя из клиента (старые серии удалять не надо),
(3) скачать новый торрент и запустить его у себя в клиенте вместо старого, при этом указать клиенту путь в старую папку куда и должно происходить скачивание новых серий.
Ваш клиент при этом должен произвести хеширование (проверку) старой папки (если не производит сам - помогите ему сделать это), и будет докачивать только те серии которых у вас ещё нет. Старые серии при этом не удаляются, а продолжают раздаваться!
Eсли вы уже удалили старые серии, то предотвратить повторную закачку старых серий можно, отжав галочку в соответсвующих местах при запуске нового торрента. По возможности, желательно не удалять старые серии как можно дольше чтобы релизёр не столько продолжал раздавать старые серии, а смог сконцентрироваться на новых.

MediaInfo

Код:
Общее
Полное имя                               : E:\Раздачи\Обновляемые\Такси (сезон 2)\Taksi.(Season.02.serija.01).avi
Формат                                   : AVI
Формат/Информация                        : Audio Video Interleave
Размер файла                             : 352 Мбайт
Продолжительность                        : 23 м.
Общий поток                              : 2071 Кбит/сек
Программа кодирования                    : VirtualDubMod 1.5.10.3 | [url=http://www.virtualdub-fr.org]www.virtualdub-fr.org[/url] || (build 2550/release)
Библиотека кодирования                   : VirtualDubMod build 2550/release
Видео
Идентификатор                            : 0
Формат                                   : MPEG-4 Visual
Профиль формата                          : Advanced [email protected]
Параметр BVOP формата                    : 1
Параметр QPel формата                    : Нет
Параметр GMC формата                     : Без точки перехода
Параметр матрицы формата                 : Default (H.263)
Идентификатор кодека                     : XVID
Идентификатор кодека/Подсказка           : XviD
Продолжительность                        : 23 м.
Битрейт                                  : 1869 Кбит/сек
Ширина                                   : 720 пикселей
Высота                                   : 400 пикселей
Соотношение сторон                       : 16:9
Частота кадров                           : 25,000 кадров/сек
Цветовое пространство                    : YUV
Субдискретизация насыщенности            : 4:2:0
Битовая глубина                          : 8 бит
Тип развёртки                            : Прогрессивная
Метод сжатия                             : С потерями
Бит/(Пиксели*Кадры)                      : 0.260
Размер потока                            : 317 Мбайт (90%)
Библиотека кодирования                   : XviD 1.2.1 (UTC 2008-12-04)
Аудио
Идентификатор                            : 1
Формат                                   : MPEG Audio
Версия формата                           : Version 1
Профиль формата                          : Layer 3
Режим                                    : Joint stereo
Расширение режима                        : MS Stereo
Идентификатор кодека                     : 55
Идентификатор кодека/Подсказка           : MP3
Продолжительность                        : 23 м.
Вид битрейта                             : Постоянный
Битрейт                                  : 192 Кбит/сек
Каналы                                   : 2 канала
Частота                                  : 48,0 КГц
Метод сжатия                             : С потерями
Размер потока                            : 32,6 Мбайт (9%)
Выравнивание                             : Соединение по промежуткам
Продолжительность промежутка             : 40  мс. (1,00 видеокадр)
Время предзагрузки промежутка            : 504  мс.
Библиотека кодирования                   : LAME3.98r
Настройки программы                      : -m j -V 4 -q 2 -lowpass 18.6 -b 192
Скриншоты:
         
         -Время раздачи: 9.00 - 23.00 (по мере возможности...)
Other forum [Profile] [PM]
Display posts from previous:    
Reply to topic

The time now is: Today 04:42

All times are GMT + 3 Hours



You cannot post new topics in this forum
You cannot reply to topics in this forum
You cannot edit your posts in this forum
You cannot delete your posts in this forum
You cannot vote in polls in this forum
You cannot attach files in this forum
You cannot download files in this forum