Today is a free download without charge Download

Бригада: Наследник (Денис Алексеев) [2012, Россия, Боевик, криминал, DVD5]

Reply to topic
 
Author
Message

Meshanik ®

Gender:

Longevity: 9 years 3 months

Posts: 3866

Location: Los Angeles

Торрент-статистика

Post 19-Jan-2013 01:44

[Quote]


Бригада: Наследник
«Продолжение легендарной саги»- Оригинальное название: Бригада: Наследник
Год выпуска: 2012
Производство: Independent Movie Company [Россия]
Жанр: Боевик, криминал
Продолжительность: 01:41:56
Перевод: Не требуется [Русский язык]
Субтитры: Отсутствуют-Дата мировой премьеры: 29 ноября 2012
Дата российской премьеры: 29 ноября 2012, «Каропрокат»
Дата выхода DVD релиза: 20 декабря 2012, «CD Land»
Дата выхода Blu-Ray релиза: 20 декабря 2012, «CD Land»-Режиссер: Денис Алексеев
Сценарий: Денис Алексеев, Александр Иншаков
Продюсер: Александр Иншаков, Леонид Лебедев, Екатерина
Актеры: Иван Макаревич, Екатерина Гусева, Кирилл Нагиев, Владислав Демин, Александр Иншаков, Анна Попова, Валерий Золотухин, Игорь Жижикин, Юрий Чурсин, Наталия Гуслистая-Описание фильма:
Фильм является идейным продолжением жизни героев телесериала «Бригада». Однако акцент смещен в историю сына Александра Белова — Ивана. Это Кино о современной России. О том, что у всех на устах: политике, коррупции, цинизме крупного бизнеса и спецслужб. О новом поколении, которое, узнав правду о нечистом бизнесе родителей, не идет по их стопам, а выбирает новый путь. Для них дороги понятия чести, любви и Родины. Герой, комфортно живший за границей, тем не менее, выбирает Россию (в отличие от сериала) и остается жить в ней, надеясь привнести эти идеалы в жизнь своих близких и страны в целом.- -Качество видео: DVD5 (R5)
Видео: MPEG-2, [email protected] (PAL 16:9), ~5400 kbps, Bit/Pixel: 0.522
Аудио: AC3 5.1, 448 kbps [Русский]-

Дополнительные материалы...

Отсутствуют

DVDInfo…

Title: Бригада.Наследник.(2012).DVD5
Size: 4.36 Gb ( 4 571 136 KBytes ) - DVD-5
Enabled regions: 1, 2, 3, 4, 5, 6, 7, 8
VTS_01 :
Play Length: 00:00:19
Video: PAL 4:3 (720x576) VBR
Audio:
Not specified (Dolby AC3, 2 ch)
VTS_02 :
Play Length: 00:01:59
Video: PAL 16:9 (720x576) VBR, Auto Pan&Scan
Audio:
Not specified (Dolby AC3, 2 ch)
Not specified (Dolby AC3, 2 ch)
Subtitles:
English
VTS_03 :
Play Length: 00:00:15
Video: PAL 16:9 (720x576) VBR, Auto Pan&Scan
Audio:
Not specified (Dolby AC3, 2 ch)
Not specified (Dolby AC3, 2 ch)
Subtitles:
English
VTS_04 :
Play Length: 01:41:56
Video: PAL 16:9 (720x576) VBR, Auto Pan&Scan
Audio:
Russian (Dolby AC3, 6 ch)

MediaInfo...

Полное имя : D:\Бригада.Наследник.(2012).DVD5\VIDEO_TS\VTS_04_1.VOB
Формат : MPEG-PS
Размер файла : 1024 Мбайт
Продолжительность : 23 м.
Режим общего битрейта : Переменный
Общий поток : 5981 Кбит/сек
Видео
Идентификатор : 224 (0xE0)
Формат : MPEG Video
Версия формата : Version 2
Профиль формата : [email protected]
Параметр BVOP формата : Да
Параметр матрицы формата : Выборочная
Параметр GOP формата : M=3, N=12
Продолжительность : 23 м.
Вид битрейта : Переменный
Битрейт : 5414 Кбит/сек
Максимальный битрейт : 9000 Кбит/сек
Ширина : 720 пикселей
Высота : 576 пикселей
Соотношение сторон : 16:9
Частота кадров : 25,000 кадров/сек
Стандарт вещания : PAL
Цветовое пространство : YUV
Субдискретизация насыщенности : 4:2:0
Битовая глубина : 8 бит
Тип развёртки : Прогрессивная
Метод сжатия : С потерями
Бит/(Пиксели*Кадры) : 0.522
Размер потока : 927 Мбайт (91%)
Основные цвета : BT.601 PAL
Характеристики трансфера : BT.470 System B, BT.470 System G
Коэффициенты матрицы : BT.601
Аудио
Идентификатор : 189 (0xBD)-128 (0x80)
Формат : AC-3
Формат/Информация : Audio Coding 3
Расширение режима : CM (complete main)
Параметр Endianness формата : Big
Режим смешивания : DVD-Video
Продолжительность : 23 м.
Вид битрейта : Постоянный
Битрейт : 448 Кбит/сек
Каналы : 6 каналов
Расположение каналов : Front: L C R, Side: L R, LFE
Частота : 48,0 КГц
Битовая глубина : 16 бит
Метод сжатия : С потерями
Размер потока : 76,7 Мбайт (7%)
Меню

Скриншоты меню...

   
-Скриншоты:
       
       
Other forum [Profile] [PM]

demal

Longevity: 8 years 8 months

Posts: 2

Торрент-статистика

Post 19-Jan-2013 14:31 (after 12 hours)

[Quote]

хрень полная.
Other forum [Profile] [PM]
Display posts from previous:    
Reply to topic

The time now is: Today 23:23

All times are GMT + 3 Hours



You cannot post new topics in this forum
You cannot reply to topics in this forum
You cannot edit your posts in this forum
You cannot delete your posts in this forum
You cannot vote in polls in this forum
You cannot attach files in this forum
You cannot download files in this forum