Today is a free download without charge Download

Я, Алекс Кросс / Alex Cross (Роб Коэн / Rob Cohen) [2012, боевик, триллер, криминал, BDRip 1080p] Dub + Original (Eng) + Sub (Rus, Eng, Fin)

Reply to topic
 
Author
Message

Omen ®

Longevity: 8 years 5 months

Posts: 181087

Торрент-статистика

Post 19-Jan-2013 01:16

[Quote]

Я, Алекс Кросс / Alex Cross
Страна: США
Студия: Envision Entertainment Corporation, IAC Productions, James Patterson Entertainment, QED International
Жанр: боевик, триллер, криминал
Год выпуска: 2012
Продолжительность: 01:41:23
Перевод: Профессиональный (дублированный)
Cубтитры: русские, английские, финские
Оригинальная аудиодорожка: английская
Режиссер: Роб Коэн / Rob Cohen
В ролях: Тайлер Перри, Рэйчел Николс, Мэттью Фокс, Эдвард Бёрнс, Жан Рено, Джанкарло Эспозито, Джон К. МакГинли, Кармен Эджого, Сисели Тайсон, Чэд Линдберг, Вернер Даен, Яра Шахиди, Сайид Шахиди, Бонни Бентли, Стефани Якобсен, Рени Сименона Мартинес, Джессалин Ванлим, Кристиан Мэтис, Тим Холмс, Инго Радемахер, Тирен Джеймс, Сонни Суровьек, Дарси Люцингер, Брайан Джексон, Кристофер Стадулис, Тимоти Дж. Ричардсон, Идин Дедашти, Дэйв Бендер
Описание: Приквел дилогии «Целуя Девушек» и «И пришел Паук»» о детективе-психологе Алексе Кроссе по культовому произведению Джеймса Паттерсона «Кросс». Знаменитый детектив Алекс Кросс идет по следам серийного убийцы, и с удивлением обнаруживает, что почерк преступника соответствует манере действий безжалостного маньяка по прозвищу Мясник. Десять лет назад Кросс сорвал исполнение одного из его смертельных контрактов, за что Мясник убил беременную жену полицейского и бесследно исчез. Неужели он вернулся? Кросс вступает в смертельную игру.

Релиз: fanatus
Качество видео: BDRip 1080p
Исходник: Blu-ray disc 1080p (BLUEBIRD)
Контейнер: MKV
Видео: MPEG-4 AVC, 18000 kbps , 1920x1080 (16:9), 24.000 fps, 0.362 bit/pixel
Аудио 1: русский (DTS, 6 ch, 48 kHz, 1 510 Kbps)
Аудио 2: английский (DTS, 6 ch, 48 kHz, 1 510 Kbps)
Формат субтитров: softsub (SRT)
Главы: есть

MediaInfo

General
Unique ID : 225937346004056061491482171287080837937 (0xA9F9F334AC0073DA95733F269044A331)
Complete name : D:\Ja,Aleks.Kross.2012.x264.BDRip.(1080).fanatus.mkv
Format : Matroska
Format version : Version 2
File size : 14.8 GiB
Duration : 1h 41mn
Overall bit rate : 21.0 Mbps
Movie name : Alex Cross (2012) - fanatus
Encoded date : UTC 2013-01-11 18:35:22
Writing application : mkvmerge v3.4.0 ('Rapunzel') сборка от May 15 2010 09:38:20
Writing library : libebml v0.8.0 + libmatroska v0.9.0
Video
ID : 1
Format : AVC
Format/Info : Advanced Video Codec
Format profile : [email protected]
Format settings, CABAC : Yes
Format settings, ReFrames : 4 frames
Codec ID : V_MPEG4/ISO/AVC
Duration : 1h 41mn
Bit rate : 18.0 Mbps
Width : 1 920 pixels
Height : 1 080 pixels
Display aspect ratio : 16:9
Frame rate : 24.000 fps
Color space : YUV
Chroma subsampling : 4:2:0
Bit depth : 8 bits
Scan type : Progressive
Bits/(Pixel*Frame) : 0.362
Stream size : 12.4 GiB (84%)
Title : Alex Cross (2012
Writing library : x264 core 128 r2216 198a7ea
Encoding settings : cabac=1 / ref=4 / deblock=1:-3:-3 / analyse=0x3:0x113 / me=umh / subme=11 / psy=1 / psy_rd=1.30:0.10 / mixed_ref=1 / me_range=48 / chroma_me=1 / trellis=2 / 8x8dct=1 / cqm=0 / deadzone=21,11 / fast_pskip=0 / chroma_qp_offset=-3 / threads=16 / lookahead_threads=2 / sliced_threads=0 / nr=0 / decimate=0 / interlaced=0 / bluray_compat=0 / constrained_intra=0 / bframes=8 / b_pyramid=2 / b_adapt=2 / b_bias=0 / direct=3 / weightb=1 / open_gop=0 / weightp=2 / keyint=240 / keyint_min=24 / scenecut=40 / intra_refresh=0 / rc_lookahead=40 / rc=2pass / mbtree=0 / bitrate=18000 / ratetol=1.0 / qcomp=0.70 / qpmin=0 / qpmax=69 / qpstep=4 / cplxblur=20.0 / qblur=0.5 / vbv_maxrate=50000 / vbv_bufsize=62500 / nal_hrd=none / ip_ratio=1.40 / pb_ratio=1.30 / aq=2:0.70
Language : English
Default : Yes
Forced : No
Matrix coefficients : BT.709-5, BT.1361, IEC 61966-2-4 709, SMPTE RP177
Audio #1
ID : 2
Format : DTS
Format/Info : Digital Theater Systems
Codec ID : A_DTS
Duration : 1h 41mn
Bit rate mode : Constant
Bit rate : 1 510 Kbps
Channel(s) : 6 channels
Channel positions : Front: L C R, Side: L R, LFE
Sampling rate : 48.0 KHz
Bit depth : 16 bits
Compression mode : Lossy
Stream size : 1.07 GiB (7%)
Title : Dub
Language : Russian
Default : Yes
Forced : Yes
Audio #2
ID : 3
Format : DTS
Format/Info : Digital Theater Systems
Codec ID : A_DTS
Duration : 1h 41mn
Bit rate mode : Constant
Bit rate : 1 510 Kbps
Channel(s) : 6 channels
Channel positions : Front: L C R, Side: L R, LFE
Sampling rate : 48.0 KHz
Bit depth : 16 bits
Compression mode : Lossy
Stream size : 1.07 GiB (7%)
Title : Original
Language : English
Default : No
Forced : No
Text #1
ID : 4
Format : UTF-8
Codec ID : S_TEXT/UTF8
Codec ID/Info : UTF-8 Plain Text
Language : Russian
Default : No
Forced : No
Text #2
ID : 5
Format : UTF-8
Codec ID : S_TEXT/UTF8
Codec ID/Info : UTF-8 Plain Text
Language : English
Default : No
Forced : No
Text #3
ID : 6
Format : UTF-8
Codec ID : S_TEXT/UTF8
Codec ID/Info : UTF-8 Plain Text
Language : Finnish
Default : No
Forced : No
Menu
00:00:00.000 : en:Chapter 01
00:05:00.000 : en:Chapter 02
00:10:00.000 : en:Chapter 03
00:15:00.000 : en:Chapter 04
00:20:00.000 : en:Chapter 05
00:25:00.000 : en:Chapter 06
00:30:00.000 : en:Chapter 07
00:35:00.000 : en:Chapter 08
00:40:00.000 : en:Chapter 09
00:45:00.000 : en:Chapter 10
00:50:00.000 : en:Chapter 11
00:55:00.000 : en:Chapter 12
01:00:00.000 : en:Chapter 13
01:05:00.000 : en:Chapter 14
01:10:00.000 : en:Chapter 15
01:15:00.000 : en:Chapter 16
01:20:00.000 : en:Chapter 17
01:25:00.000 : en:Chapter 18
01:30:00.000 : en:Chapter 19
01:35:00.000 : en:Chapter 20
01:40:00.000 : en:Chapter 21

x264 [info]

---[NoImage] raw [info]: 1920x1080p 1:1 @ 24/1 fps (cfr)
---[NoImage] x264 [info]: using SAR=1/1
---[NoImage] x264 [info]: using cpu capabilities: MMX2 SSE2Fast FastShuffle SSEMisalign LZCNT
---[NoImage] x264 [info]: profile High, level 4.1
---[NoImage]
---[NoImage] x264 [info]: frame I:887 Avg QP:17.97 size:232539
---[NoImage] x264 [info]: frame P:32592 Avg QP:20.04 size:145848
---[NoImage] x264 [info]: frame B:112522 Avg QP:22.20 size: 77145
---[NoImage] x264 [info]: consecutive B-frames: 2.9% 4.0% 7.7% 13.7% 10.0% 54.3% 4.9% 1.2% 1.4%
---[NoImage] x264 [info]: mb I I16..4: 9.9% 76.9% 13.3%
---[NoImage] x264 [info]: mb P I16..4: 2.3% 32.0% 1.9% P16..4: 22.3% 26.3% 7.3% 0.0% 0.0% skip: 8.0%
---[NoImage] x264 [info]: mb B I16..4: 0.4% 4.3% 0.1% B16..8: 48.0% 21.8% 3.8% direct: 8.0% skip:13.7% L0:49.5% L1:39.3% BI:11.2%
---[NoImage] x264 [info]: 8x8 transform intra:87.8% inter:61.7%
---[NoImage] x264 [info]: direct mvs spatial:98.8% temporal:1.2%
---[NoImage] x264 [info]: coded y,uvDC,uvAC intra: 91.7% 86.8% 59.6% inter: 56.3% 50.9% 12.9%
---[NoImage] x264 [info]: i16 v,h,dc,p: 26% 13% 22% 39%
---[NoImage] x264 [info]: i8 v,h,dc,ddl,ddr,vr,hd,vl,hu: 11% 7% 12% 10% 13% 12% 12% 11% 12%
---[NoImage] x264 [info]: i4 v,h,dc,ddl,ddr,vr,hd,vl,hu: 14% 8% 12% 8% 12% 12% 11% 10% 11%
---[NoImage] x264 [info]: i8c dc,h,v,p: 46% 21% 17% 16%
---[NoImage] x264 [info]: Weighted P-Frames: Y:2.1% UV:1.0%
---[NoImage] x264 [info]: ref P L0: 50.0% 10.1% 24.8% 13.7% 1.5% 0.0%
---[NoImage] x264 [info]: ref B L0: 85.8% 11.2% 3.0%
---[NoImage] x264 [info]: ref B L1: 92.9% 7.1%
---[NoImage] x264 [info]: kb/s:17937.73
---[NoImage] encoded 146001 frames, 3.78 fps, 17937.73 kb/s

Скриншот c названием фильма

Скриншоты

Other forum [Profile] [PM]
Display posts from previous:    
Reply to topic

The time now is: Today 11:13

All times are GMT + 3 Hours



You cannot post new topics in this forum
You cannot reply to topics in this forum
You cannot edit your posts in this forum
You cannot delete your posts in this forum
You cannot vote in polls in this forum
You cannot attach files in this forum
You cannot download files in this forum