Today is a free download without charge Download

Noel Gallagher's High Flying Birds - Gurtenfestival [2012, Indie Rock, HDTVRip 720p]

Reply to topic
 
Author
Message

Omen ®

Longevity: 8 years 4 months

Posts: 181087

Торрент-статистика

Post 19-Jan-2013 01:16

[Quote]

Noel Gallagher's High Flying Birds - Live At Gurtenfestival
Жанр: Indie Rock
Продолжительность: 00:57:59
Год выпуска: 2012
Tracklist:
1.(It's Good) To Be Free (Oasis cover)
2.Everybody's on the Run
3.Dream On
4.If I Had a Gun...
5.The Death of You and Me
6.(I Wanna Live in a Dream in My) Record Machine
7.AKA... What a Life!
8.Talk Tonight (Oasis cover)
9.AKA... Broken Arrow
10.Half the World Away (Oasis cover)
11.(Stranded On) The Wrong Beach
12.Whatever (Oasis cover)
13.Don't Look Back in Anger (Oasis cover)
Качество: HDTVRip 720p
Контейнер: MKV
Видео кодек: H.264
Аудио кодек: AC3
Видео: AVC, 1272x720, 16:9, 4730 Kbps, 50 fps
Аудио: AC3, 448 Kbps. 48 kHz. 6 ch

MediaInfo

GeneralUnique ID : 272853453844635957525667822562883128256 (0xCD45A9E97B1F3C44B8ED534528D7CBC0)Complete name : K:\Noel_gallaghers_high_flying_birds-gurtenfestival_(2012)-720p-x264-2012-uva.mkvFormat : MatroskaFormat version : Version 4 / Version 2File size : 2.14 GiBDuration : 57mn 59sOverall bit rate : 5 283 KbpsEncoded date : UTC 2010-02-22 21:41:31Writing application : mkvmerge v5.9.0 ('On The Loose') built on Dec 9 2012 15:48:35Writing library : libebml v1.3.0 + libmatroska v1.4.0
VideoID : 1Format : AVCFormat/Info : Advanced Video CodecFormat profile : [email protected] settings, CABAC : YesFormat settings, ReFrames : 5 framesCodec ID : V_MPEG4/ISO/AVCDuration : 57mn 59sBit rate : 4 730 KbpsWidth : 1 272 pixelsHeight : 720 pixelsDisplay aspect ratio : 16:9Original display aspect ratio : 16:9Frame rate : 50.000 fpsColor space : YUVChroma subsampling : 4:2:0Bit depth : 8 bitsScan type : ProgressiveBits/(Pixel*Frame) : 0.103Stream size : 1.92 GiB (90%)Writing library : x264 core 129 r2245 bc13772Encoding settings : cabac=1 / ref=5 / deblock=1:0:0 / analyse=0x3:0x113 / me=umh / subme=9 / psy=1 / psy_rd=1.00:0.00 / mixed_ref=1 / me_range=24 / chroma_me=1 / trellis=1 / 8x8dct=1 / cqm=0 / deadzone=21,11 / fast_pskip=1 / chroma_qp_offset=-2 / threads=6 / lookahead_threads=1 / sliced_threads=0 / nr=0 / decimate=1 / interlaced=0 / bluray_compat=0 / constrained_intra=0 / bframes=16 / b_pyramid=2 / b_adapt=1 / b_bias=0 / direct=1 / weightb=1 / open_gop=0 / weightp=2 / keyint=250 / keyint_min=25 / scenecut=40 / intra_refresh=0 / rc_lookahead=40 / rc=crf / mbtree=1 / crf=20.0 / qcomp=0.60 / qpmin=0 / qpmax=69 / qpstep=4 / ip_ratio=1.40 / aq=1:1.00Default : YesForced : Yes
AudioID : 2Format : AC-3Format/Info : Audio Coding 3Mode extension : CM (complete main)Format settings, Endianness : BigCodec ID : A_AC3Duration : 57mn 59sBit rate mode : ConstantBit rate : 448 KbpsChannel(s) : 6 channelsChannel positions : Front: L C R, Side: L R, LFESampling rate : 48.0 KHzBit depth : 16 bitsCompression mode : LossyDelay relative to video : 7msStream size : 186 MiB (8%)Default : YesForced : Yes

Скриншоты


Other forum [Profile] [PM]
Display posts from previous:    
Reply to topic

The time now is: Today 08:58

All times are GMT + 3 Hours



You cannot post new topics in this forum
You cannot reply to topics in this forum
You cannot edit your posts in this forum
You cannot delete your posts in this forum
You cannot vote in polls in this forum
You cannot attach files in this forum
You cannot download files in this forum