Today is a free download without charge Download

Discovery: Красота змей / The Beauty Of Snakes (2003/2008) BDRip [720/H.264]

Reply to topic
 
Author
Message

Omen ®

Longevity: 7 years 10 months

Posts: 181087

Торрент-статистика

Post 18-Jan-2013 22:20

[Quote]

-Discovery: Красота змей / The Beauty Of Snakes (2003/2008) BDRip [720/H.264]- Русское название: Красота змей
Оригинальное название: The Beauty Of Snakes
Режиссер / Телекомпания: Discovery Channel ™
Год выпуска: 2003
Год выхода Blu-Ray: 2008
Жанр: Документальный
Описание:
Змеи вызывают страх, ненависть и восхищение. В некоторых культурах они воплощение чистого зла, в других им поклоняются как богам. Змеи, как никто другой, соблазнительны, очарованы и смертельно опасны. Их гладкие, сильные тела, выкрашенные самыми великолепными цветами природы, скользят по планете быстро и элегантно. Мы исследуем каждый аспект их таинственной жизни. Как они рождаются, охотятся и ощущают мир вокруг них - все в потрясающих деталях. От пустынь Намибии до лесов Амазонки мы покажем вам красоту змей, как ее никогда не показывали прежде.
Продолжительность: 00:43:21
Режиссер: Джоан Скофилд / Joanne Scotfield
Перевод: Дублированный (одноголосый)
Язык субтитров: Английский
Вид субтитров: Вшитые
Релиз от: drony2005
Видеокодек: MPEG-4 AVC/H.264
Битрейт видео: ~4999 kbps
Размер кадра: 1280x720, 16:9, 29,970 fps
Качество видео: BDRip (рип с Blu-Ray 1080i)
Аудиокодек: AC3 2.0, 5.1
Аудио 1: Русский, AC3, 2 ch, 192 kbps, 48 kHz
Аудио 2: Английский, AC3, 5.1 ch, 448 kbps, 48 kHz
Сохранены оригинальные чаптеры Blu-Ray

MediaInfo

Общее
Уникальный идентификатор : 246905818362477774869478008029982172327 (0xB9C054B60B4CF44C9F30E0FB261324A7)
Полное имя : The.Beauty.of.Snakes.2005.BDRip.720.drony.mkv
Формат : Matroska
Версия формата : Version 4 / Version 2
Размер файла : 1,71 Гбайт
Продолжительность : 43 м.
Режим общего битрейта : Переменный
Общий поток : 5635 Кбит/сек
Дата кодирования : UTC 2013-01-12 09:09:13
Программа кодирования : mkvmerge v5.9.0 ('On The Loose') built on Dec 31 2012 17:36:59
Библиотека кодирования : libebml v1.3.0 + libmatroska v1.4.0
Видео
Идентификатор : 1
Формат : AVC
Формат/Информация : Advanced Video Codec
Профиль формата : [url=mailto:[email protected]][email protected][/url]
Параметр CABAC формата : Да
Параметр ReFrames формата : 3 кадра
Идентификатор кодека : V_MPEG4/ISO/AVC
Продолжительность : 43 м.
Вид битрейта : Переменный
Битрейт : 4999 Кбит/сек
Максимальный битрейт : 40,0 Мбит/сек
Ширина : 1280 пикселей
Высота : 720 пикселей
Соотношение сторон : 16:9
Частота кадров : 29,970 кадров/сек
Цветовое пространство : YUV
Субдискретизация насыщенности : 4:2:0
Битовая глубина : 8 бит
Тип развёртки : Прогрессивная
Бит/(Пиксели*Кадры) : 0.181
Размер потока : 1,48 Гбайт (87%)
Заголовок : drony
Библиотека кодирования : x264 core 129 r2245 bc13772
Язык : English
Default : Да
Forced : Нет
Основные цвета : BT.709-5, BT.1361, IEC 61966-2-4, SMPTE RP177
Характеристики трансфера : BT.709-5, BT.1361
Коэффициенты матрицы : BT.709-5, BT.1361, IEC 61966-2-4 709, SMPTE RP177
Аудио #1
Идентификатор : 2
Формат : AC-3
Формат/Информация : Audio Coding 3
Расширение режима : CM (complete main)
Параметр Endianness формата : Big
Идентификатор кодека : A_AC3
Продолжительность : 43 м.
Вид битрейта : Постоянный
Битрейт : 192 Кбит/сек
Каналы : 2 канала
Расположение каналов : Front: L R
Частота : 48,0 КГц
Битовая глубина : 16 бит
Метод сжатия : С потерями
Размер потока : 59,5 Мбайт (3%)
Заголовок : AC3, 2 ch, 192 kbps, 48 kHz
Язык : Russian
Default : Да
Forced : Нет
Аудио #2
Идентификатор : 3
Формат : AC-3
Формат/Информация : Audio Coding 3
Расширение режима : CM (complete main)
Параметр Endianness формата : Big
Идентификатор кодека : A_AC3
Продолжительность : 43 м.
Вид битрейта : Постоянный
Битрейт : 448 Кбит/сек
Каналы : 6 каналов
Расположение каналов : Front: L C R, Side: L R, LFE
Частота : 48,0 КГц
Битовая глубина : 16 бит
Метод сжатия : С потерями
Размер потока : 139 Мбайт (8%)
Заголовок : AC3, 5.1 ch, 448 kbps, 48 kHz
Язык : English
Default : Нет
Forced : Нет
Текст
Идентификатор : 4
Формат : PGS
Режим смешивания : zlib
Идентификатор кодека : S_HDMV/PGS
Идентификатор кодека/Информация : The same subtitle format used on BDs/HD-DVDs
Язык : English
Default : Да
Forced : Нет
Меню
00:00:00.000 : en:00:00:00.000
00:01:14.408 : en:00:01:14.408
00:07:51.471 : en:00:07:51.471
00:14:04.844 : en:00:14:04.844
00:22:38.357 : en:00:22:38.357
00:29:06.745 : en:00:29:06.745
00:36:54.212 : en:00:36:54.212
00:42:42.727 : en:00:42:42.727

Особенности рипа

Сделал рип с Blu-Ray, оставив две звуковые дорожки, английские субтитры и перемещение по главам. Приятного просмотра!
Скриншоты:


Время раздачи: C 19:00 до 23:00
Other forum [Profile] [PM]
Display posts from previous:    
Reply to topic

The time now is: Today 00:27

All times are GMT + 3 Hours



You cannot post new topics in this forum
You cannot reply to topics in this forum
You cannot edit your posts in this forum
You cannot delete your posts in this forum
You cannot vote in polls in this forum
You cannot attach files in this forum
You cannot download files in this forum