Today is a free download without charge Download

Ловец солнца / The Sunchaser (Майкл Чимино / Michael Cimino) [1996, США, драма, криминал, 720p WEB-DL] DVO (ОРТ) + AVO (В.Горчаков) + Original Eng

Reply to topic
 
Author
Message

Omen ®

Longevity: 8 years 5 months

Posts: 181087

Торрент-статистика

Post 18-Jan-2013 13:04

[Quote]

Ловец солнца / The Sunchaser Страна: США
Жанр: драма, криминал
Год выпуска: 1996
Продолжительность: 02:02:30
Перевод 1: Профессиональный (двухголосый закадровый) ОРТ
Перевод 2: Авторский (одноголосый закадровый) В.Горчаков
Cубтитры: нет
Оригинальная аудиодорожка: английский
Режиссер: Майкл Чимино / Michael Cimino
В ролях: Вуди Харрельсон, Джон Седа, Энн Бэнкрофт, Александра Тайдингс, Мэтт Малхерн, Талиса Сото, Ричард Бауэр, Виктор Аарон, Лоуренс Прессман, Майкл О’Нил
Описание: Смертельно больной преступник захватывает в заложники преуспевающего лос-анжелесского врача. Начинается головокружительная погоня по Западу Соединенных Штатов. Кто останется в живых и так ли уж глубока пропасть между злодеем и жертвой?
Релиз от: by Stuey
Источник: The Sunchaser 1996 720p WEB-DL AAC 2.0 H.264-HDStar
Тип релиза: 720p WEB-DL
Контейнер: MKV
Видео: 1280x544 at 23.976 fps, MPEG-4 AVC, ~4153 kbps avg
Аудио#1: Russian: 48 kHz, AC3, 2/0 (L,R) ch, ~192 kbps avg |Двухголосый закадровый, ОРТ|
Аудио#2: Russian: 48 kHz, AC3, 2/0 (L,R) ch, ~192 kbps avg |Одноголосый закадровый, В.Горчаков|
Аудио#3: English: 48 kHz, AAC, 2/0 (L,R) ch, ~160 kbps avg
Скачать: Сэмпл

MediaInfo

General
Unique ID : 247727835910156041886690590423328326708 (0xBA5EA54E2706CD03B23B5CFE4B7D8434)
Complete name : D:\Релизы\Ловец солнца\The.Sunchaser.1996.720p.WEB-DL.2xRus.Eng.HDCLUB.mkv
Format : Matroska
Format version : Version 4 / Version 2
File size : 3.88 GiB
Duration : 2h 2mn
Overall bit rate : 4 537 Kbps
Movie name : The Sunchaser (1996) - Release for HDCLUB
Encoded date : UTC 2010-02-22 21:41:31
Writing application : mkvmerge v5.9.0 ('On The Loose') built on Dec 9 2012 15:37:01
Writing library : libebml v1.3.0 + libmatroska v1.4.0
Video
ID : 1
Format : AVC
Format/Info : Advanced Video Codec
Format profile : [email protected]
Format settings, CABAC : No
Format settings, ReFrames : 2 frames
Codec ID : V_MPEG4/ISO/AVC
Duration : 2h 2mn
Width : 1 280 pixels
Height : 544 pixels
Display aspect ratio : 2.35:1
Frame rate mode : Constant
Frame rate : 23.976 fps
Color space : YUV
Chroma subsampling : 4:2:0
Bit depth : 8 bits
Scan type : Progressive
Title : Release for HDCLUB
Language : English
Default : Yes
Forced : No
Color primaries : BT.709
Transfer characteristics : BT.709
Matrix coefficients : BT.709
Audio #1
ID : 2
Format : AC-3
Format/Info : Audio Coding 3
Mode extension : CM (complete main)
Format settings, Endianness : Big
Codec ID : A_AC3
Duration : 2h 2mn
Bit rate mode : Constant
Bit rate : 192 Kbps
Channel(s) : 2 channels
Channel positions : Front: L R
Sampling rate : 48.0 KHz
Bit depth : 16 bits
Compression mode : Lossy
Stream size : 168 MiB (4%)
Title : DVO, ORT
Language : Russian
Default : No
Forced : Yes
Audio #2
ID : 3
Format : AC-3
Format/Info : Audio Coding 3
Mode extension : CM (complete main)
Format settings, Endianness : Big
Codec ID : A_AC3
Duration : 2h 2mn
Bit rate mode : Constant
Bit rate : 192 Kbps
Channel(s) : 2 channels
Channel positions : Front: L R
Sampling rate : 48.0 KHz
Bit depth : 16 bits
Compression mode : Lossy
Stream size : 168 MiB (4%)
Title : AVO, Gorchakov
Language : Russian
Default : No
Forced : No
Audio #3
ID : 4
Format : AAC
Format/Info : Advanced Audio Codec
Format profile : LC
Codec ID : A_AAC
Duration : 2h 2mn
Channel(s) : 2 channels
Channel positions : Front: L R
Sampling rate : 48.0 KHz
Compression mode : Lossy
Title : Eng
Language : English
Default : No
Forced : No
Menu
00:00:00.000 : en:Chapter 1
00:10:00.000 : en:Chapter 2
00:20:00.000 : en:Chapter 3
00:30:00.000 : en:Chapter 4
00:40:00.000 : en:Chapter 5
00:50:00.000 : en:Chapter 6
01:00:00.000 : en:Chapter 7
01:10:00.000 : en:Chapter 8
01:20:00.000 : en:Chapter 9
01:30:00.000 : en:Chapter 10
01:40:00.000 : en:Chapter 11
01:50:00.000 : en:Chapter 12
02:00:00.000 : en:Chapter 13

Скриншоты

Stuey писал(а):
  • Оцифровка VHS "Лазер Видео" с Горчаковым - Fikaloid

Рейтинг R - Детям до 17 лет обязательно присутствие родителей

Рейтинг R получают фильмы, в содержании которых обязательно содержится материал, предназначенный только для взрослой аудитории. Родителям рекомендуется хорошо подумать, прежде чем посмотреть такой фильм вместе со своими детьми.
Фильм, получивший рейтинг R, скорее всего содержит сексуальные сцены, эпизоды с употреблением наркотиков, нецензурную брань, фрагменты с насилием и т.д.
Other forum [Profile] [PM]
Display posts from previous:    
Reply to topic

The time now is: Today 01:14

All times are GMT + 3 Hours



You cannot post new topics in this forum
You cannot reply to topics in this forum
You cannot edit your posts in this forum
You cannot delete your posts in this forum
You cannot vote in polls in this forum
You cannot attach files in this forum
You cannot download files in this forum