Сегодня идет свободное скачивание без начисления Download

Огненные годы (1939) DVDRip

Ответить на тему
 
Автор
Сообщение

Omen ®

Стаж: 6 лет

Сообщений: 184329

Торрент-статистика

Пост 18-Янв-2013 09:28

[Цитировать]

-Огненные годы (1939) DVDRip- Русское название: Огненные годы
Год выпуска: 1939
Жанр: Военный, Драма
Описание фильма:
1919 год. Части белополяков, вторгнувшиеся в пределы Советской Белоруссии, встречают на своем пути упорное сопротивление вооруженных отрядов белорусских рабочих и крестьян, идущих на сближение с Красной Армией. Однако в результате предательства город приходится сдать врагу. Но борьба только начинается. На самых трудных участках фронта комиссар Федор Палаш и летчик-большевик Миклуха...
Режиссер: Владимир Корш-Саблин
Актеры: Константин Скоробогатов (Фёдор Палаш), Александр Кузнецов (Миклуха), Иван Пельтцер (дед Яухим), Григорий Плужник (внук Петрусь), Константин Злобин (Наливайко), Борис Пославский (доктор), Зоя Федорова (политрук Анна), Иван Кононенко (сын Микита), Г. Криченко (сын Василь), Аркадий Райкин (Рубинчик), Леонид Макарьев (генерал Скирмунд), Александр Жуков (Устиновский).
Продолжительность: 01:23:59

Видеокодек: DivX 4/5/6
Битрейт видео: ~2203 kb/s
Размер кадра: 688x522
Качество видео: DVDRip
Аудиокодек: MP3
Битрейт аудио: 128 kb/s

MediaInfo

Общее
Полное имя : D:\Папка\Видео\Огненные годы\Огненные годы.avi
Формат : AVI
Формат/Информация : Audio Video Interleave
Размер файла : 1,38 Гбайт
Продолжительность : 1 ч. 24 м.
Общий поток : 2340 Кбит/сек
Программа кодирования : VirtualDubMod 1.5.10.2 (build 2542/release)
Библиотека кодирования : VirtualDubMod build 2542/release
Видео
Идентификатор : 0
Формат : MPEG-4 Visual
Параметр BVOP формата : 1
Параметр QPel формата : Нет
Параметр GMC формата : Без точки перехода
Параметр матрицы формата : Default (H.263)
Режим смешивания : Сжатый битовый поток
Идентификатор кодека : DX50
Идентификатор кодека/Подсказка : DivX 5
Продолжительность : 1 ч. 24 м.
Битрейт : 2203 Кбит/сек
Ширина : 688 пикселей
Высота : 552 пикселя
Соотношение сторон : 5:4
Соотношение сторон в оригинале : 5:4
Частота кадров : 25,000 кадров/сек
Цветовое пространство : YUV
Субдискретизация насыщенности : 4:2:0
Битовая глубина : 8 бит
Тип развёртки : Прогрессивная
Метод сжатия : С потерями
Бит/(Пиксели*Кадры) : 0.232
Размер потока : 1,29 Гбайт (94%)
Библиотека кодирования : DivX 6.8.0 (UTC 2007-12-04)
Аудио
Идентификатор : 1
Формат : MPEG Audio
Версия формата : Version 1
Профиль формата : Layer 3
Идентификатор кодека : 55
Идентификатор кодека/Подсказка : MP3
Продолжительность : 1 ч. 24 м.
Вид битрейта : Постоянный
Битрейт : 128 Кбит/сек
Каналы : 1 канал
Частота : 48,0 КГц
Метод сжатия : С потерями
Размер потока : 77,0 Мбайт (5%)
Выравнивание : Соединение по промежуткам
Продолжительность промежутка : 40 мс. (1,00 видеокадр)
Время предзагрузки промежутка : 504 мс.
Библиотека кодирования : LAME3.97
Настройки программы : -m m -V 4 -q 0 -b 128

Доп. инфо

Корш-Саблин Владимир Владимирович, режиссёр
Родился 29 марта 1900 г. в Москве. В 1917 г. окончил реальное училище. С 1917 г. работал в театрах Симферополя, Мелитополя, Казани. Участник Гражданской войны. С 1925 г. - помощник, ассистент режиссёра и актер к/с "Госкино" (затем - "Совкино") в Москве. С 1926 г. - к/с "Белгоскино". С 1930 г. - режиссёр-постановщик к/с "Белгоскино" (ныне - "Беларусьфильм"). В 1945-1960 гг. - худ. рук. к/с "Беларусьфильм". С 1957 г. - председатель оргбюро СРК Белоруссии. С 1965 г. - Первый секретарь СК Белоруссии.
Сталинская премия (1950).
Гос. премия Белорусской ССР (1967).
Народный артист СССР (1969).
Умер 6 июля 1974 г.
...Агитфильмы, близкие, с одной стороны, к плакату, с его чёткостью, однозначностью и резким делением на «чёрное» и «белое», в то же время близки и народному творчеству - с точным разграничением добра и зла, с прямой и недвусмысленной характеризацией персонажей, чёткой расстановкой сил, острыми, запоминающимися ситуациями. В сказке всегда добро побеждает зло...
...Оптимизм и счастливые финалы картин Корш-Саблина - не просто следы агитфильмов. Это глубже. В них - вера художника в победу справедливости, вера, которая в его фильмах всегда исторически обоснована. Наиболее удачные фильмы Корш-Саблина те, где он ясно видит «линию фронта», где отчётливо деление на «своих» и «врагов», где борьба идет «с поднятым забралом». Кавалерийский красный командир, Корш-Саблин остается таким и в своем творчестве. Он всегда предпочитает открытый бой, с «шашкой наголо»...
Скриншоты:

Время раздачи: По возможности
Вне форума [Профиль] [ЛС]
Показать сообщения:    
Ответить на тему

Текущее время: Сегодня 18:47

Часовой пояс: GMT + 3



Вы не можете начинать темы
Вы не можете отвечать на сообщения
Вы не можете редактировать свои сообщения
Вы не можете удалять свои сообщения
Вы не можете голосовать в опросах
Вы не можете прикреплять файлы к сообщениям
Вы не можете скачивать файлы