Today is a free download without charge Download

Три дня Кондора / Three Days of the Condor (1975) [1080p] Blu-Ray Remux

Reply to topic
 
Author
Message

Omen ®

Longevity: 8 years 5 months

Posts: 181087

Торрент-статистика

Post 18-Jan-2013 09:28

[Quote]

-Три дня Кондора / Three Days of the Condor (1975) [1080p] Blu-Ray Remux - Русское название: Три дня Кондора
Оригинальное название: Three Days of the Condor
Год выпуска: 1975
Жанр: Триллер, Драма, Детектив
Описание фильма:
Работающий в одном из замаскированных отделов ЦРУ в Нью-Йорке парень по имени Джо Тэрнер занимается анализом бульварно-детективной литературы, в которой выискивает интересующие Ведомство «оригинальные приёмы». В последний предрождественский рабочий день Тэрнер, вернувшись после обеденного перерыва с ужасом обнаруживает в конторе трупы своих 7-х коллег. Он звонит по «аварийному» телефону в дежурную часть ЦРУ. Начальство назначает ему встречу. Но… она оказывается ловушкой. Тэрнеру остаётся лишь одно: на свой страх и риск выяснить причины устроенной на него охоты.
Режиссер: Сидни Поллак
Актеры: Роберт Редфорд, Фэй Данауэй, Клифф Робертсон, Макс фон Сюдов, Джон Хаусмен, Эддисон Пауэлл, Уолтер МакДжинн, Тина Чен, Майкл Кэйн, Дон МакГенри, Майкл Б. Миллер, Джесс Осуна, Дино Нариззано, Хелен Стенборг, Патрик Горман, Хансфорд Роу, Карлин Глинн, Хэнк Гаррет, Артур Френч, Джей Дэвлин, Фрэнк Савино, Роберт Фален, Джон Рэндольф Джонс, Гаррисон Филлипс, Ли Стил, Эд Краули, Джон Коннелл, Норман Буш, Джеймс Кин, Эд Сетракьян, Майрон Нэтвик, Майкл Принц, Кэрол Густафссон, Хэрмон Уильям, Дэвид Боуман, Эйлин Гордон, Дженнифер РоузДэвид Аллен, Гленн Фергюсон, Пол Двайер, Мэриэн Свон
Продолжительность: 01:57:22
Перевод: Дублированный
Язык: Русский/Английский
Язык субтитров: Русский/Английский

Дата мировой премьеры: 24.09.1975
Дата выхода DVD релиза: 11.08.2009
Видеокодек: MPEG-4 AVC/H.264
Битрейт видео: 42,8 Мбит/с, 1920x1080, 23.976 кадр/с
Размер кадра: 1920x1080
Качество видео: Blu-Ray Remux 1080p
Аудио 1: Русский, 755 Кбит/сек, 48 кГц, 24 бит, 6 каналов, DTS (многоголосый закадровый)
Аудио 2: Русский, 384 Кбит/сек, 48 кГц, 16 бит, 2 каналов, AC-3 (Dolby Digital) (дублированный)
Аудио 3: Английский, 3960 Кбит/сек, 48 кГц, 6 каналов, TrueHD

MediaInfo

Общее
Уникальный идентификатор : 218067915609715464036894368053196068866 (0xA40E5A54EBAE620DB41426FDDC459802)
Полное имя : D:\Фильмы\Three.Days.of.the.Condor.1975.BDRemux.1080p.AVC.Rus.Eng.mkv
Формат : Matroska
Версия формата : Version 2
Размер файла : 35,1 Гбайт
Продолжительность : 1 ч. 57 м.
Режим общего битрейта : Переменный
Общий поток : 42,8 Мбит/сек
Дата кодирования : UTC 2011-08-16 17:29:37
Программа кодирования : mkvmerge v4.9.1 ('Ich will') сборка от Jul 11 2011 23:53:15
Библиотека кодирования : libebml v1.2.1 + libmatroska v1.1.1
Видео
Идентификатор : 1
Формат : AVC
Формат/Информация : Advanced Video Codec
Профиль формата : [url=mailto:[email protected]][email protected][/url]
Параметр CABAC формата : Да
Параметр ReFrames формата : 4 кадра
Идентификатор кодека : V_MPEG4/ISO/AVC
Продолжительность : 1 ч. 57 м.
Вид битрейта : Переменный
Максимальный битрейт : 39,8 Мбит/сек
Ширина : 1920 пикселей
Высота : 1080 пикселей
Соотношение сторон : 16:9
Режим частоты кадров : Постоянный
Частота кадров : 23,976 кадра/сек
Цветовое пространство : YUV
Субдискретизация насыщенности : 4:2:0
Битовая глубина : 8 бит
Тип развёртки : Прогрессивная
Язык : English
Default : Нет
Forced : Нет
Основные цвета : BT.709
Характеристики трансфера : BT.709
Коэффициенты матрицы : BT.709
Аудио #1
Идентификатор : 2
Формат : DTS
Формат/Информация : Digital Theater Systems
Режим : 16
Параметр Endianness формата : Big
Идентификатор кодека : A_DTS
Продолжительность : 1 ч. 57 м.
Вид битрейта : Постоянный
Битрейт : 755 Кбит/сек
Каналы : 6 каналов
Расположение каналов : Front: L C R, Side: L R, LFE
Частота : 48,0 КГц
Битовая глубина : 24 бит
Метод сжатия : С потерями
Размер потока : 633 Мбайт (2%)
Заголовок : MVO R5
Язык : Russian
Default : Да
Forced : Нет
Аудио #2
Идентификатор : 3
Формат : AC-3
Формат/Информация : Audio Coding 3
Профиль формата : Dolby Digital
Расширение режима : CM (complete main)
Параметр Endianness формата : Big
Идентификатор кодека : A_AC3
Продолжительность : 1 ч. 57 м.
Вид битрейта : Постоянный
Битрейт : 384 Кбит/сек
Каналы : 2 канала
Расположение каналов : Front: L R
Частота : 48,0 КГц
Битовая глубина : 16 бит
Метод сжатия : С потерями
Размер потока : 322 Мбайт (1%)
Заголовок : Dub USSR
Язык : Russian
Default : Нет
Forced : Нет
Аудио #3
Идентификатор : 4
Формат : TrueHD
Идентификатор кодека : A_TRUEHD
Продолжительность : 1 ч. 57 м.
Вид битрейта : Переменный
Максимальный битрейт : 3960 Кбит/сек
Каналы : 6 каналов
Расположение каналов : Front: L C R, Side: L R, LFE
Частота : 48,0 КГц
Метод сжатия : Без потерь
Заголовок : Original
Язык : English
Default : Нет
Forced : Нет
Текст #1
Идентификатор : 5
Формат : UTF-8
Идентификатор кодека : S_TEXT/UTF8
Идентификатор кодека/Информация : UTF-8 Plain Text
Язык : Russian
Default : Нет
Forced : Нет
Текст #2
Идентификатор : 6
Формат : UTF-8
Идентификатор кодека : S_TEXT/UTF8
Идентификатор кодека/Информация : UTF-8 Plain Text
Язык : English
Default : Нет
Forced : Нет
Скриншоты:
       
Время раздачи: 24/7
Other forum [Profile] [PM]
Display posts from previous:    
Reply to topic

The time now is: Today 04:08

All times are GMT + 3 Hours



You cannot post new topics in this forum
You cannot reply to topics in this forum
You cannot edit your posts in this forum
You cannot delete your posts in this forum
You cannot vote in polls in this forum
You cannot attach files in this forum
You cannot download files in this forum