Сегодня идет свободное скачивание без начисления Download

Хождение за три моря (2 серии) (1958) DVD9

Ответить на тему
 
Автор
Сообщение

Omen ®

Стаж: 6 лет

Сообщений: 184329

Торрент-статистика

Пост 18-Янв-2013 09:28

[Цитировать]

-Хождение за три моря (2 серии) (1958) DVD9- Русское название: Хождение за три моря (2 серии)
Год выпуска: 1958
Жанр: Биография, Исторический, Приключения
Описание фильма:
«Хождение за три моря» — исторический художественный фильм 1958 г., первая совместная постановка советских и индийских кинематографистов о путешествии тверского купца Афанасия Никитина по мотивам его одноимённых путевых записок.
Доп.информация:
Родился Афанасий в семье крестьянина Никиты. Совершил путешествие в 1468—1474 (датировка Л. С. Семёнова, ранее И. И. Срезневским датировалось 1466—1472 годами) по Персии, Индии и Турции; составил описание этого путешествия в книге «Хожение за три моря». Это было первое в русской литературе описание не паломничества, а коммерческой поездки, насыщенное наблюдениями о политическом устройстве, экономике и культуре других стран.
Никитин отправился в путь из Твери:
«Пошел я от Спаса святого златоверхого с его милостью, от государя своего великого князя Михаила Борисовича Тверского, от владыки Геннадия Тверского и от Бориса Захарьича.»
Ограбленный астраханскими татарами в устье Волги, Никитин решил не возвращаться восвояси с пустыми руками, поскольку задолжал, и решил пробраться в Индию, где надеялся выгодно продать жеребца, и, купив нужных на Руси товаров, возвратиться домой. Неизвестно, откуда он взял средства на последующее путешествие, так как ширваншах не пожертвовал и двух монет, чтобы помочь пострадавшим от морских разбойников. Никитин пишет:
«А я пошёл в Дербент, а из Дербента в Баку».
Однако он ошибся в расчёте:
«Налгали мне псы бусурманы, наговорили, что всякого нашего товара там много, а вышло, что нет ничего на нашу землю, все товар белый на бусурманскую землю, перец да краски — это дешево, но зато пошлины большие да на море разбойников много»...
Режиссер: Василий Пронин, Ходжа-Ахмад Аббас
Актеры: Олег Стриженов, Наргис, Балрадж Сахни, Притхвирадж Капур, Падмини, Дэвид, Джайрадж, Варвара Обухова, Виктор Беляков, Степан Каюков, Иван Жеваго, Никифор Колофидин, Всеволод Якут, Михаил Трояновский, Ия Арепина, Л.Топчиев, В.Баландин, В.Тягушев
Продолжительность: 01:31:25 + 00:51:56

Видеокодек: MPEG-2
Битрейт видео: ~5 300 Kbps
Размер кадра: PAL 16:9, [email protected]х576 VBR
Качество видео: DVD9
Аудиокодек: AC3 6 ch / AC3 1 ch
Аудио 1: Dolby AC3, 6 ch, 448 Kbps, 48.0 KHz
Аудио 2: Dolby AC3, 1 ch, 224 Kbps, 48.0 KHz
Сэмпл: Ссылка

DVDinfo

Title: Khozhdeniye za tri morya
Size: 6.22 Gb ( 6 516 940,00 KBytes ) - DVD-9
Enabled regions: 1, 2, 3, 4, 5, 6, 7, 8
VTS_01 :
Play Length: 00:00:38
Video: PAL 4:3 (720x576) VBR
VTS_02 :
Play Length: 01:31:25
Video: PAL 16:9 (720x576) VBR, Auto Letterboxed
Audio:
Russian (Dolby AC3, 6 ch)
Russian (Dolby AC3, 1 ch)
VTS_03 :
Play Length: 00:51:56
Video: PAL 16:9 (720x576) VBR, Auto Letterboxed
Audio:
Russian (Dolby AC3, 6 ch)
Russian (Dolby AC3, 1 ch)
* Menus Information *
VIDEO_TS Menu
Video:
PAL 16:9 (720x576) VBR
Auto Pan&Scan, Auto Letterboxed
English Language Unit :
Title Menu
VTS_01 Menu
Video:
PAL 16:9 (720x576) VBR
Auto Letterboxed
Audio:
Not specified (Dolby AC3, 6 ch)
English Language Unit :
Root Menu
VTS_02 Menu
Video:
PAL 4:3 (720x576) VBR
English Language Unit :
Root Menu
VTS_03 Menu
Video:
PAL 4:3 (720x576) VBR
English Language Unit :
Root Menu

Медиаинфо

Format : MPEG-PS
File size : 1 024 MiB
Duration : 23mn 28s
Overall bit rate : 6 096 Kbps
Video
ID : 224 (0xE0)
Format : MPEG Video
Format version : Version 2
Format profile : [email protected]
Format settings, BVOP : Yes
Format settings, Matrix : Custom
Format settings, GOP : M=3, N=12
Duration : 23mn 28s
Bit rate : 5 300 Kbps
Width : 720 pixels
Height : 576 pixels
Display aspect ratio : 4:3
Frame rate : 25.000 fps
Standard : PAL
Color space : YUV
Chroma subsampling : 4:2:0
Bit depth : 8 bits
Scan type : Interlaced
Scan order : Top Field First
Compression mode : Lossy
Bits/(Pixel*Frame) : 0.511
Stream size : 890 MiB (87%)
Audio #1
ID : 189 (0xBD)-128 (0x80)
Format : AC-3
Format/Info : Audio Coding 3
Mode extension : CM (complete main)
Format settings, Endianness : Big
Muxing mode : DVD-Video
Duration : 23mn 28s
Bit rate mode : Constant
Bit rate : 448 Kbps
Channel(s) : 6 channels
Channel positions : Front: L C R, Side: L R, LFE
Sampling rate : 48.0 KHz
Bit depth : 16 bits
Compression mode : Lossy
Delay relative to video : -720ms
Stream size : 75.2 MiB (7%)
Audio #2
ID : 189 (0xBD)-129 (0x81)
Format : AC-3
Format/Info : Audio Coding 3
Mode extension : CM (complete main)
Format settings, Endianness : Big
Muxing mode : DVD-Video
Duration : 23mn 28s
Bit rate mode : Constant
Bit rate : 224 Kbps
Channel(s) : 1 channel
Channel positions : Front: C
Sampling rate : 48.0 KHz
Bit depth : 16 bits
Compression mode : Lossy
Delay relative to video : -688ms
Stream size : 37.6 MiB (4%)
Menu

Скриншоты меню

     
Скриншоты:
         
         
Вне форума [Профиль] [ЛС]
Похожие темы
Форум Тема Автор Торрент Отв. Посл. сообщение
./templates/default/images/folder_dl.gif Моды TES IV: Oblivion - плагины, софт, патчи, прохождения (30.01.2015) [RUS] [Mods/Pack] Basil44
1 | 0

0 | 3493

2

2015-07-17 02:31
Basil44 Последнее
Показать сообщения:    
Ответить на тему

Текущее время: Сегодня 18:47

Часовой пояс: GMT + 3



Вы не можете начинать темы
Вы не можете отвечать на сообщения
Вы не можете редактировать свои сообщения
Вы не можете удалять свои сообщения
Вы не можете голосовать в опросах
Вы не можете прикреплять файлы к сообщениям
Вы не можете скачивать файлы