Today is a free download without charge Download

Сваты 4 (2010) [H.264] HDTVRip [1-16 серий из 16]

Reply to topic
 
Author
Message

Omen ®

Longevity: 8 years 11 months

Posts: 181086

Торрент-статистика

Post 18-Jan-2013 09:28

[Quote]

-Сваты 4 (2010) [H.264] HDTVRip [1-16 серий из 16]- Русское название: Сваты 4
Год выпуска: 2010
Жанр: Комедия, Семейный-
Дата российской премьеры: 15 ноября 2010
Дата выхода DVD/Blu-Ray релиза: 13 января 2011, «Новый Диск»-Режиссер: Андрей Яковлев
Актеры: Людмила Артемьева, Федор Добронравов, Татьяна Кравченко, Анатолий Васильев, София Стеценко, Николай Добрынин, Маргарита Шубина-Описание фильма:
В четвертой части "Сватов" телезрители смогут наблюдать за курортными приключениями полюбившихся героев. На этот раз бабушки и дедушки отправятся в Крым. Но они туда поедут не столько отдыхать, сколько опекать свою любимую внучку Женечку, которую родители отправили в детский лагерь "Артек". Сваты так и не научились жить без внучки, но они и не научились жить друг с другом! В "Сватах-4" телезрителей ждет еще больше юмора, еще больше забавных ситуаций и знакомство с новыми героями.-Продолжительность: 16 x ~ 00:50:00
Качество видео: HDTVRip-Видеокодек: MPEG-4 AVC/H.264
Битрейт видео: ~1815 kb/s
Размер кадра: 1024x576
Аудиокодек: AC3 2.0
Битрейт аудио: 192 kb/s-

MediaInfo

General
Unique ID : 221074952411009556462097521784435546989 (0xA6517CB14A4E53CD9FEE1078921C9B6D)
Complete name : D:\Загрузки\NNMClub\Сваты 4.2010.HDTVRip-AVC.Metla111\Сваты 4.01 серия.2010.HDTVRip-AVC.Metla111.mkv
Format : Matroska
Format version : Version 2
File size : 749 MiB
Duration : 52mn 10s
Overall bit rate : 2 006 Kbps
Encoded date : UTC 2013-01-05 14:55:07
Writing application : mkvmerge v5.8.0 ('No Sleep / Pillow') built on Sep 2 2012 15:37:04
Writing library : libebml v1.2.3 + libmatroska v1.3.0
Video
ID : 1
Format : AVC
Format/Info : Advanced Video Codec
Format profile : [url=mailto:[email protected]][email protected][/url]
Format settings, CABAC : Yes
Format settings, ReFrames : 12 frames
Codec ID : V_MPEG4/ISO/AVC
Duration : 52mn 10s
Bit rate : 1 815 Kbps
Width : 1 024 pixels
Height : 576 pixels
Display aspect ratio : 16:9
Frame rate : 25.000 fps
Color space : YUV
Chroma subsampling : 4:2:0
Bit depth : 8 bits
Scan type : Progressive
Bits/(Pixel*Frame) : 0.123
Stream size : 662 MiB (88%)
Writing library : x264 core 125 r2208 d9d2288
Encoding settings : cabac=1 / ref=12 / deblock=1:-3:-3 / analyse=0x3:0x113 / me=umh / subme=9 / psy=1 / psy_rd=1.00:0.15 / mixed_ref=1 / me_range=32 / chroma_me=1 / trellis=2 / 8x8dct=1 / cqm=0 / deadzone=21,11 / fast_pskip=1 / chroma_qp_offset=-3 / threads=6 / lookahead_threads=1 / sliced_threads=0 / nr=0 / decimate=1 / interlaced=0 / bluray_compat=0 / constrained_intra=0 / bframes=8 / b_pyramid=2 / b_adapt=2 / b_bias=0 / direct=3 / weightb=1 / open_gop=0 / weightp=2 / keyint=250 / keyint_min=25 / scenecut=40 / intra_refresh=0 / rc=2pass / mbtree=0 / bitrate=1815 / ratetol=1.0 / qcomp=0.65 / qpmin=0 / qpmax=69 / qpstep=4 / cplxblur=20.0 / qblur=0.5 / ip_ratio=1.40 / pb_ratio=1.30 / aq=2:1.00
Default : Yes
Forced : No
Color primaries : BT.709-5, BT.1361, IEC 61966-2-4, SMPTE RP177
Transfer characteristics : BT.709-5, BT.1361
Matrix coefficients : BT.709-5, BT.1361, IEC 61966-2-4 709, SMPTE RP177
Audio
ID : 2
Format : AC-3
Format/Info : Audio Coding 3
Mode extension : CM (complete main)
Codec ID : A_AC3
Duration : 52mn 10s
Bit rate mode : Constant
Bit rate : 192 Kbps
Channel(s) : 2 channels
Channel positions : Front: L R
Sampling rate : 48.0 KHz
Bit depth : 16 bits
Compression mode : Lossy
Stream size : 71.7 MiB (10%)
Default : Yes
Forced : No

Знаете ли вы, что...

Главную песню в начальных титрах исполняют Федор Добронравов и Людмила Артемьева.
-Скриншоты:
       
Время раздачи: c 07:00 до 22:30
Все раздачи сериала
Other forum [Profile] [PM]
Display posts from previous:    
Reply to topic

The time now is: Today 10:55

All times are GMT + 3 Hours



You cannot post new topics in this forum
You cannot reply to topics in this forum
You cannot edit your posts in this forum
You cannot delete your posts in this forum
You cannot vote in polls in this forum
You cannot attach files in this forum
You cannot download files in this forum