Today is a free download without charge Download

Небесные родственники (2011) IPTVRip [8 из 8]

Reply to topic
 
Author
Message

Omen ®

Longevity: 8 years 11 months

Posts: 181086

Торрент-статистика

Post 17-Jan-2013 22:17

[Quote]

-Небесные родственники (2011) IPTVRip [8 из 8]- Русское название: Небесные родственники
Год выпуска: 2011
Жанр: Комедия, Мелодрама

Дата российской премьеры: 09.01.2012
Режиссер: Богдан Дробязко
Актеры: Артем Ткаченко, Павел Деревянко, Андрей Ургант, Елена Стефанская, Николай Добрынин, Анастасия Задорожная, Ольга Макеева, Потап, Сергей Калантай, Алексей Смолка
Описание фильма:
Молодой человек по имени Артем живет беззаботной свободной жизнью. Он — типичный представитель современной молодежи, поглощенный быстрым жизненным темпом. Главными приоритетами для Артема являются женщины, алкоголь и бесчисленные вечеринки. Наверняка, жизнь главного героя продолжала бы оставаться такой же бесцельной, если бы не его «веселые родственнички», которые своими выходками и нравоучениями постоянно ставят героя в комичные ситуации. Но они не приходят в гости на чай и не приезжают, например, из Воронежа, как делают типичные среднестатистические родственники.
Они появляются из потустороннего мира в обличии призраков. Родители и дедушка, погибший еще в Отечественной войне, пытаются изменить судьбу Артема и вернуть его на путь истинный. И тут жизнь главного героя переворачивается с ног на голову, наполняясь мистическими и одновременно смешными историями и событиями…
Продолжительность: 8 серий по 45 минут
Качество видео: IPTVRip
Видеокодек: Xvid
Битрейт видео: ~~1593 kb/s
Размер кадра: 720x400
Аудиокодек: MP3
Битрейт аудио: 192 Kb/s
Скриншоты:

Время раздачи: 24/7

MediaInfo

Общее
Полное имя : F:\Фильмы\Nebesnye.rodstvenniki.2012.XviD.IPTVRip\Nebesnye.rodstvenniki.03.seriya.2012.XviD.IPTVRip.avi
Формат : AVI
Формат/Информация : Audio Video Interleave
Размер файла : 549 Мбайт
Продолжительность : 34 м.
Общий поток : 2216 Кбит/сек
Программа кодирования : VirtualDubMod 1.5.10.3 | www.virtualdub-fr.org || (build 2550/release)
Библиотека кодирования : VirtualDubMod build 2550/release
Видео
Идентификатор : 0
Формат : MPEG-4 Visual
Профиль формата : Advanced [email protected]
Параметр BVOP формата : 1
Параметр QPel формата : Нет
Параметр GMC формата : Без точки перехода
Параметр матрицы формата : Default (H.263)
Идентификатор кодека : XVID
Идентификатор кодека/Подсказка : XviD
Продолжительность : 34 м.
Битрейт : 2014 Кбит/сек
Ширина : 720 пикселей
Высота : 400 пикселей
Соотношение сторон : 16:9
Частота кадров : 25,000 кадров/сек
Цветовое пространство : YUV
Субдискретизация насыщенности : 4:2:0
Битовая глубина : 8 бит
Тип развёртки : Прогрессивная
Метод сжатия : С потерями
Бит/(Пиксели*Кадры) : 0.280
Размер потока : 499 Мбайт (91%)
Библиотека кодирования : XviD 1.2.1 (UTC 2008-12-04)
Аудио
Идентификатор : 1
Формат : MPEG Audio
Версия формата : Version 1
Профиль формата : Layer 3
Идентификатор кодека : 55
Идентификатор кодека/Подсказка : MP3
Продолжительность : 34 м.
Вид битрейта : Постоянный
Битрейт : 192 Кбит/сек
Каналы : 2 канала
Частота : 48,0 КГц
Метод сжатия : С потерями
Размер потока : 47,6 Мбайт (9%)
Выравнивание : Соединение по промежуткам
Продолжительность промежутка : 40 мс. (1,00 видеокадр)
Время предзагрузки промежутка : 504 мс.
Библиотека кодирования : LAME3.98r
Настройки программы : -m s -V 4 -q 2 -lowpass 18.6 -b 192
Все раздачи сериала:
[url=/forum/viewtopic.php?t=433972]Небесные родственники (1-8 серии из 8) (2011) SATRip[/url]
[url=/forum/viewtopic.php?t=433968]Небесные родственники (8 серий из 8) (2012) SATRip[/url]
Other forum [Profile] [PM]
Display posts from previous:    
Reply to topic

The time now is: Today 10:25

All times are GMT + 3 Hours



You cannot post new topics in this forum
You cannot reply to topics in this forum
You cannot edit your posts in this forum
You cannot delete your posts in this forum
You cannot vote in polls in this forum
You cannot attach files in this forum
You cannot download files in this forum