Сегодня идет свободное скачивание без начисления Download

Штрафной удар (1963) DVDRip

Ответить на тему
 
Автор
Сообщение

Omen ®

Стаж: 5 лет 10 месяцев

Сообщений: 184329

Торрент-статистика

Пост 17-Янв-2013 20:52

[Цитировать]

-Штрафной удар (1963) DVDRip- Русское название: Штрафной удар
Год выпуска: 1963
Производство: СССР, Студия Горького
Жанр: Комедия, спорт
Режиссер: Вениамин Дорман
Сценарий: Владлен Бахнов, Яков Костюковский
Актеры: Михаил Пуговкин, Владимир Высоцкий, Лариса Лужина, Игорь Пушкарев, Владимир Трещалов, Лилиана Алешникова, Георгий Тусузов, Елена Понсова, Николай Сморчков, Юрий Медведев, Алексей Бахар
Описание фильма:
Бывший руководитель животноводческого комплекса получает задание поднять авторитет спорта на селе. Смекнув, что добиться успеха можно очень быстро, он решает пригласить профессионалов выступить под вымышленными фамилиями на областной спартакиаде. Но по дороге команда знакомится с корреспонденткой газеты Людой Миловановой. Скандала теперь не избежать…- -Продолжительность: 01:27:13
Качество видео: DVDRip
Видеокодек: XviD
Битрейт видео: 1055 Кбит/сек
Размер кадра: 640x480
Аудио : Русский, MP3, 2 ch, 128 Кбит/сек

MediaInfo

Код:
Общее
Полное имя                               : E:\Раздачи\Видео\Штрафной удар (1963) DVDRip.avi
Формат                                   : AVI
Формат/Информация                        : Audio Video Interleave
Размер файла                             : 744 Мбайт
Продолжительность                        : 1 ч. 27 м.
Общий поток                              : 1193 Кбит/сек
Программа кодирования                    : VirtualDubModRus 1.5.10.2 (build 2542/release)
Библиотека кодирования                   : VirtualDubMod build 2542/release
Видео
Идентификатор                            : 0
Формат                                   : MPEG-4 Visual
Профиль формата                          : Advanced [email protected]
Параметр BVOP формата                    : 2
Параметр QPel формата                    : Нет
Параметр GMC формата                     : Без точки перехода
Параметр матрицы формата                 : Default (MPEG)
Режим смешивания                         : Сжатый битовый поток
Идентификатор кодека                     : XVID
Идентификатор кодека/Подсказка           : XviD
Продолжительность                        : 1 ч. 27 м.
Битрейт                                  : 1055 Кбит/сек
Ширина                                   : 640 пикселей
Высота                                   : 480 пикселей
Соотношение сторон                       : 4:3
Частота кадров                           : 25,000 кадров/сек
Цветовое пространство                    : YUV
Субдискретизация насыщенности            : 4:2:0
Битовая глубина                          : 8 бит
Тип развёртки                            : Прогрессивная
Метод сжатия                             : С потерями
Бит/(Пиксели*Кадры)                      : 0.137
Размер потока                            : 658 Мбайт (88%)
Библиотека кодирования                   : XviD 1.2.1 (UTC 2008-12-04)
Аудио
Идентификатор                            : 1
Формат                                   : MPEG Audio
Версия формата                           : Version 1
Профиль формата                          : Layer 3
Идентификатор кодека                     : 55
Идентификатор кодека/Подсказка           : MP3
Продолжительность                        : 1 ч. 27 м.
Вид битрейта                             : Постоянный
Битрейт                                  : 128 Кбит/сек
Каналы                                   : 2 канала
Частота                                  : 48,0 КГц
Метод сжатия                             : С потерями
Размер потока                            : 79,9 Мбайт (11%)
Выравнивание                             : Соединение по промежуткам
Продолжительность промежутка             : 40  мс. (1,00 видеокадр)
Время предзагрузки промежутка            : 504  мс.
Библиотека кодирования                   : LAME3.97
Настройки программы                      : -m s -V 4 -q 1 -b 128
Скриншоты:
         
         -Время раздачи: 9.00 - 23.00 (по мере возможности...)
Вне форума [Профиль] [ЛС]
Показать сообщения:    
Ответить на тему

Текущее время: Сегодня 20:25

Часовой пояс: GMT + 3



Вы не можете начинать темы
Вы не можете отвечать на сообщения
Вы не можете редактировать свои сообщения
Вы не можете удалять свои сообщения
Вы не можете голосовать в опросах
Вы не можете прикреплять файлы к сообщениям
Вы не можете скачивать файлы