Today is a free download without charge Download

Мастер и Маргарита / «Здесь укрылась нечистая сила» (Юрий Кара) [1994 г., драма, комедия, детектив, DVDRip]

Reply to topic
 
Author
Message

nsa1977 ®

Gender:

Longevity: 10 years

Posts: 1470

Location: Пенза

Торрент-статистика

Post 02-May-2011 00:25

[Quote]

Мастер и Маргарита «Здесь укрылась нечистая сила» Год выпуска: 1994
Страна: Россия
Жанр: драма, комедия, детектив
Продолжительность: 01:58:15
Перевод: Оригинал [Лицензия]
Cубтитры: нет
Оригинальная аудиодорожка: русский
Режиссер: Юрий Кара
Продюссер: Владимир Скорый, Ирина Минеева, Александр Пашкевич, ...
Сценарий: Юрий Кара
Бюджет: $1 786 180
Премьера в мире: 7 апреля 2011- -В ролях: Михаил Ульянов, Валентин Гафт, Анастасия Вертинская, Виктор Раков, Александр Филиппенко,
Сергей Гармаш, Лев Дуров, Сергей Никоненко, Николай Бурляев, Леонид Куравлёв-Описание: Действие происходит в 1920—1930-е годы в сталинской Москве и в годы жизни Иисуса
Христа в Ершалаиме. Мастер с гениальным озарением описал последние дни жизни Спасителя в своем
романе о Понтии Пилате, за который поплатился свободой. Его тайная возлюбленная Маргарита готова
на сделку с дьяволом, лишь бы спасти Мастера. В это время некто Воланд, посетивший Москву со своей
свитой, наводит ужас на обывателей. Но в мире, где укоренилось зло, и засела нечистая сила, проделки
сатаны, окрашенные искрометным юмором, оборачиваются возмездием за людские грехи и пороки.-Качество: DVDRip
Формат: AVI
Видео кодек: XviD
Аудио кодек: AC3
Видео: 720x544 (1.32:1), 25 fps, XviD build 50 ~2094 kbps avg, 0.21 bit/pixel
Аудио: 48 kHz, AC3 Dolby Digital, 3/2 (L,C,R,l,r) + LFE ch, ~384 kbps

MediaInfo

Общее
Полное имя : H:\Новинки 2011\Master.i.Margarita.2011.O.DVDRip.avi
Формат : AVI
Формат/Информация : Audio Video Interleave
Профиль формата : OpenDML
Размер файла : 2,05 Гбайт
Продолжительность : 1 ч. 58 м.
Общий поток : 2485 Кбит/сек
Название фильма : Master.i.Margarita.2011.O.DVDRip.KINOPARK
Режиссёр : R.G.KINOPARK
Программа кодирования : VirtualDubMod 1.5.4.1 (build 2178/release)
Правообладатель : 2011 (c) KINOPARK
Видео
Идентификатор : 0
Формат : MPEG-4 Visual
Профиль формата : Advanced [email protected]
Параметр BVOP формата : 1
Параметр QPel формата : Нет
Параметр GMC формата : Без точки перехода
Параметр матрицы формата : Выборочная
Идентификатор кодека : XVID
Идентификатор кодека/Подсказка : XviD
Продолжительность : 1 ч. 58 м.
Битрейт : 2092 Кбит/сек
Ширина : 720 пикс.
Высота : 544 пикс.
Соотношение сторон : 4:3
Частота кадров : 25,000 кадр/сек
Цветовое пространство : YUV
Подвыборка цветности : 4:2:0
Битовая глубина : 8 бит
Тип развёртки : Прогрессивная
Метод сжатия : С потерями
Бит/(Пиксели*Кадры) : 0.214
Размер потока : 1,73 Гбайт (84%)
Библиотека кодирования : XviD 1.2.1 (UTC 2008-12-04)
Аудио
Идентификатор : 1
Формат : AC-3
Формат/Информация : Audio Coding 3
Расширение режима : CM (complete main)
Идентификатор кодека : 2000
Продолжительность : 1 ч. 58 м.
Вид битрейта : Постоянный
Битрейт : 384 Кбит/сек
Канал(ы) : 6 канала(ов)
Расположение каналов : Front: L C R, Side: L R, LFE
Частота : 48,0 КГц
Битовая глубина : 16 бит
Метод сжатия : С потерями
Размер потока : 325 Мбайт (15%)
Выравнивание : Разделение по промежуткам
Продолжительность промежутка : 96 мс. (2,40 видеокадров)
Время предзагрузки промежутка : 96 ms

Трейлер

    

_________________


Last edited by nsa1977 on 2011-05-04 14:21; edited 1 time in total
Other forum [Profile] [PM]

itkus

Gender:

Longevity: 8 years 5 months

Posts: 19

Торрент-статистика

Post 30-Jun-2012 11:31 (after 1 year 1 month)

[Quote]

Одно из шикарных произведений воплощённых на экран, огромное спасибо.
Other forum [Profile] [PM]
Similar theme
Forum Topic Author Torrent Replies Last Post
./templates/default/images/folder_dl.gif Rock (Progressive rock) [CD] Emerson Lake & Palmer: Pictures At An Exhibition, 1971 (японский ремастер 1999), FLAC (tracks+.cue), lossless Omen
0 | 1

0 | 797

0

2014-02-04 23:00
Omen Latest
Display posts from previous:    
Reply to topic

The time now is: Today 03:50

All times are GMT + 3 Hours



You cannot post new topics in this forum
You cannot reply to topics in this forum
You cannot edit your posts in this forum
You cannot delete your posts in this forum
You cannot vote in polls in this forum
You cannot attach files in this forum
You cannot download files in this forum