Today is a free download without charge Download

С новым годом, мамы! (Сарик Андреасян, Артем Аксененко, Дмитрий Грачев) [2012 г., комедия, семейный, DVD9]

Reply to topic
 
Author
Message

Meshanik ®

Gender:

Longevity: 9 years 4 months

Posts: 3866

Location: Los Angeles

Торрент-статистика

Post 17-Jan-2013 11:24

[Quote]

С новым годом, мамы!
«Праздничное кино»
- Оригинальное название: С новым годом, мамы!
Год выпуска: 2012
Производство: Enjoy Movies [Россия]
Жанр: Комедия, семейный
Продолжительность: 01:21:02
Перевод: Не требуется [Русский язык]
Субтитры: Отсутствуют-Дата мировой премьеры: 27 декабря 2012
Дата российской премьеры: 27 декабря 2012, «Каропрокат»
Дата выхода DVD релиза: 21 января 2013, «Новый Диск»
Дата выхода Blu-Ray релиза: 28 января 2013, «Новый Диск»-Режиссер: Сарик Андреасян, Артем Аксененко, Дмитрий Грачев
Продюсер: Георгий Малков, Сарик Андреасян, Гевонд Андреасян
В ролях: Елизавета Боярская, Максим Матвеев, Павел Воля, Ирина Розанова, Ален Делон, Екатерина Вилкова, Светлана Иванова, Максим Виторган, Константин Крюков, Гарик Харламов-Описание фильма:
В новой ленте зрители увидят новые истории и новые приключения новых героев, объединенных одним чувством — любовью к МАМЕ.
5 новелл. Смешные и трогательные, лиричные и комичные — каждая новелла расскажет историю мамы и ребенка, двух самых близких людей на свете. Ведь что бы ни происходило, мама всегда остается тем человеком, который будет любить всегда и несмотря ни на что…- -Качество видео: DVD9 (R5)
Видео: MPEG-2, [email protected] (PAL 16:9), ~7700 kbps, Bit/Pixel: 0.750
Аудио: AC3 5.1, 448 kbps [Русский]-

Дополнительные материалы...

  • Фильм о фильме

DVDInfo…

Title: S.Novym.godom.mamy.(2012).DVD9
Size: 5.73 Gb ( 6 004 466 KBytes ) - DVD-9
Enabled regions: 1, 2, 3, 4, 5, 6, 7, 8
VTS_01 :
Play Length: 00:00:15
Video: PAL 16:9 (720x576) VBR, Auto Pan&Scan
VTS_02 :
Play Length: 00:00:07
Video: PAL 16:9 (720x576) VBR, Auto Pan&Scan
Audio:
Not specified (MPEG1, 2 ch)
VTS_03 :
Play Length: 00:20:50
Video: PAL 16:9 (720x576) VBR, Auto Pan&Scan
Audio:
Russian (Dolby AC3, 2 ch)
VTS_04 :
Play Length: 01:21:02
Video: PAL 16:9 (720x576) VBR, Auto Pan&Scan, Auto Letterboxed
Audio:
Russian (Dolby AC3, 6 ch)

MediaInfo...

Полное имя : D:\S.Novym.godom.mamy.(2012).DVD9\VIDEO_TS\VTS_04_1.VOB
Формат : MPEG-PS
Размер файла : 1024 Мбайт
Продолжительность : 17 м.
Режим общего битрейта : Переменный
Общий поток : 8388 Кбит/сек
Видео
Идентификатор : 224 (0xE0)
Формат : MPEG Video
Версия формата : Version 2
Профиль формата : [email protected]
Параметр BVOP формата : Да
Параметр матрицы формата : По умолчанию
Параметр GOP формата : M=3, N=12
Продолжительность : 17 м.
Вид битрейта : Переменный
Битрейт : 7773 Кбит/сек
Максимальный битрейт : 9000 Кбит/сек
Ширина : 720 пикселей
Высота : 576 пикселей
Соотношение сторон : 16:9
Частота кадров : 25,000 кадров/сек
Стандарт вещания : PAL
Цветовое пространство : YUV
Субдискретизация насыщенности : 4:2:0
Битовая глубина : 8 бит
Тип развёртки : Прогрессивная
Метод сжатия : С потерями
Бит/(Пиксели*Кадры) : 0.750
Размер потока : 949 Мбайт (93%)
Аудио
Идентификатор : 189 (0xBD)-128 (0x80)
Формат : AC-3
Формат/Информация : Audio Coding 3
Расширение режима : CM (complete main)
Параметр Endianness формата : Big
Режим смешивания : DVD-Video
Продолжительность : 17 м.
Вид битрейта : Постоянный
Битрейт : 448 Кбит/сек
Каналы : 6 каналов
Расположение каналов : Front: L C R, Side: L R, LFE
Частота : 48,0 КГц
Битовая глубина : 16 бит
Метод сжатия : С потерями
Задержка видео : -80 мс.
Размер потока : 54,7 Мбайт (5%)
Меню

Скриншоты меню...

   
Скриншоты:
       
       
Other forum [Profile] [PM]

Dracula

Longevity: 7 years 11 months

Posts: 11007

Торрент-статистика

Post 31-Jan-2013 12:00 (after 14 days)

Топик был перенесен из форума Наше кино (2012) в форум Наше кино (DVD)


sassad
 
Display posts from previous:    
Reply to topic

The time now is: Today 03:41

All times are GMT + 3 Hours



You cannot post new topics in this forum
You cannot reply to topics in this forum
You cannot edit your posts in this forum
You cannot delete your posts in this forum
You cannot vote in polls in this forum
You cannot attach files in this forum
You cannot download files in this forum