Today is a free download without charge Download

Марьина роща / Серии: 1 из 16 (Александр Хван) [2012, детектив, SATRip - AVC ]

Reply to topic
 
Author
Message

Omen ®

Longevity: 8 years 11 months

Posts: 181086

Торрент-статистика

Post 17-Jan-2013 01:24

[Quote]

Марьина роща- Год выпуска: 2012
Производство: "Мостелефильм"
Жанр: детектив
Продолжительность: ~ 00:44:00
Субтитры: нет-Режиссёр: Александр Хван-В ролях: Александр Домогаров, Евгения Крюкова, Виталий Кудрявцев, Сергей Комаров, Савва Гусев, Елена Доронина, Яна Львова, Наталья Литвинова, Виктор Тереля, Дмитрий Смирнов, Артем Лысков, Виталий Горшков, Виктор Маркин, Олег Алмазов, Сергей Потапов, Юрий Шлыков, Борис Романов, Константин Желдин, Петр Зайченко, Ольга Науменко, Татьяна Мухина, Егор Баринов, Людмила Давыдова, Ирина Гордина, Полина Лунегова, Татьяна Чернопятова, Алексей Михайлов, Ксения Баринова, Игорь Филиппов, Дмитрий Гусев, Евгений Харланов, Михаил Горский, Анастасия Платонова, Сергей Дьячков, Константин Глушков, Михаил Солодко, Максим Макаров, Игорь Огурцов-Описание: Вернувшись после победы с фронта оперативник МУРА Константин Трошин узнает, что там он больше не работает. А причина — в конфликте с влиятельным генералом НКГБ. Но Трошин не намерен отступать, так как без работы в органах жизнь его теряет всякий смысл. Он устраивается на работу в самом неблагополучном районе Москвы — Марьиной Роще. И там же из-зи личных проблем поселиться жить в коммуналке. Таким образом, Трошин оказался в самом центре криминальной среды. Он тесно сходится с ее обитателями. И, может быть, из-за этого ему удается раскрывать самые дерзкие и хладнокровные преступления. Убийства, налеты и аферы — здесь не в новинку. Но Трошин хочет идти дальше и искоренить преступление как таковое. А люди в ответ на его желание идут к нему, как третейскому судье, они доверяют ему, когда надо отделять добро от зла.-Доп. Информация: Спасибо kostik184 за предоставленный исходник!-Любая реклама ОТСУТСТВУЕТ!!!-Сэмпл-Качество: SATRip - AVC
Формат: MKV
Видео кодек: H.264
Аудио кодек: AC3
Видео: x264, 716 х 428**764 х 428 (16:9), 25,000 кадр/сек, ~ 1576 Кбит/сек, ~ 0.206 bit/pi
Аудио: AC3, 48.0 KHz, 2 канала(ов), 192 kbs

MI

Полное имя : C:\Users\Роки\Videos\Марьина роща.2012.SATRip-AVC.Metla111\Марьина роща.01 серия.2012.SATRip-AVC.Metla111.mkv
Формат : Matroska
Версия формата : Version 2
Размер файла : 558 Мбайт
Продолжительность : 44 м.
Общий поток : 1770 Кбит/сек
Дата кодирования : UTC 2013-01-16 02:29:44
Программа кодирования : mkvmerge v5.8.0 ('No Sleep / Pillow') built on Sep 2 2012 15:37:04
Библиотека кодирования : libebml v1.2.3 + libmatroska v1.3.0
Видео
Идентификатор : 1
Формат : AVC
Формат/Информация : Advanced Video Codec
Профиль формата : [email protected]
Параметр CABAC формата : Да
Параметр ReFrames формата : 12 кадров
Идентификатор кодека : V_MPEG4/ISO/AVC
Продолжительность : 44 м.
Битрейт : 1576 Кбит/сек
Ширина : 716 пикселей
Высота : 428 пикселей
Соотношение сторон : 16:9
Соотношение сторон в оригинале : 16:9
Режим частоты кадров : Постоянный
Частота кадров : 25,000 кадров/сек
Цветовое пространство : YUV
Субдискретизация насыщенности : 4:2:0
Битовая глубина : 8 бит
Тип развёртки : Прогрессивная
Бит/(Пиксели*Кадры) : 0.206
Размер потока : 486 Мбайт (87%)
Библиотека кодирования : x264 core 125 r2208 d9d2288
Настройки программы : cabac=1 / ref=12 / deblock=1:-3:-3 / analyse=0x3:0x113 / me=umh / subme=9 / psy=1 / psy_rd=1.00:0.20 / mixed_ref=1 / me_range=32 / chroma_me=1 / trellis=2 / 8x8dct=1 / cqm=0 / deadzone=21,11 / fast_pskip=1 / chroma_qp_offset=-3 / threads=6 / lookahead_threads=1 / sliced_threads=0 / nr=0 / decimate=0 / interlaced=0 / bluray_compat=0 / constrained_intra=0 / bframes=10 / b_pyramid=2 / b_adapt=2 / b_bias=0 / direct=3 / weightb=1 / open_gop=0 / weightp=2 / keyint=250 / keyint_min=25 / scenecut=40 / intra_refresh=0 / rc=2pass / mbtree=0 / bitrate=1576 / ratetol=1.0 / qcomp=0.70 / qpmin=0 / qpmax=69 / qpstep=4 / cplxblur=20.0 / qblur=0.5 / ip_ratio=1.40 / pb_ratio=1.30 / aq=2:1.00
Default : Да
Forced : Нет
Основные цвета : BT.601 PAL
Характеристики трансфера : BT.470 System B, BT.470 System G
Коэффициенты матрицы : BT.601
Аудио
Идентификатор : 2
Формат : AC-3
Формат/Информация : Audio Coding 3
Расширение режима : CM (complete main)
Параметр Endianness формата : Big
Идентификатор кодека : A_AC3
Продолжительность : 44 м.
Вид битрейта : Постоянный
Битрейт : 192 Кбит/сек
Каналы : 2 канала
Расположение каналов : Front: L R
Частота : 48,0 КГц
Битовая глубина : 16 бит
Метод сжатия : С потерями
Размер потока : 60,5 Мбайт (11%)
Default : Да
Forced : Нет

Log - x264

raw [info]: 716x428p 16:15 @ 25/1 fps (cfr)
x264 [info]: using SAR=16/15
x264 [info]: using cpu capabilities: MMX2 SSE2Fast SSSE3 FastShuffle SSE4.2
x264 [info]: profile High, level 3.1
x264 [info]: frame I:632 Avg QP:16.71 size: 51760
x264 [info]: frame P:14608 Avg QP:19.27 size: 18069
x264 [info]: frame B:50824 Avg QP:21.33 size: 4406
x264 [info]: consecutive B-frames: 1.8% 2.6% 11.0% 20.3% 17.8% 42.4% 2.9% 0.4% 0.4% 0.3% 0.0%
x264 [info]: mb I I16..4: 12.5% 57.5% 30.0%
x264 [info]: mb P I16..4: 0.4% 7.8% 1.8% P16..4: 40.3% 31.7% 16.5% 0.0% 0.0% skip: 1.5%
x264 [info]: mb B I16..4: 0.0% 0.4% 0.1% B16..8: 41.9% 9.9% 2.6% direct: 5.7% skip:39.3% L0:34.4% L1:46.4% BI:19.2%
x264 [info]: 8x8 transform intra:71.8% inter:51.9%
x264 [info]: direct mvs spatial:98.7% temporal:1.3%
x264 [info]: coded y,uvDC,uvAC intra: 97.6% 73.2% 43.2% inter: 28.6% 20.7% 3.9%
x264 [info]: i16 v,h,dc,p: 8% 11% 26% 55%
x264 [info]: i8 v,h,dc,ddl,ddr,vr,hd,vl,hu: 14% 11% 6% 8% 13% 13% 12% 12% 12%
x264 [info]: i4 v,h,dc,ddl,ddr,vr,hd,vl,hu: 14% 11% 4% 8% 13% 14% 13% 12% 12%
x264 [info]: i8c dc,h,v,p: 31% 28% 23% 18%
x264 [info]: Weighted P-Frames: Y:6.8% UV:3.0%
x264 [info]: ref P L0: 47.3% 15.4% 17.5% 4.2% 4.3% 2.5% 2.8% 1.2% 1.5% 1.0% 1.2% 1.0% 0.2% 0.0%
x264 [info]: ref B L0: 84.9% 8.0% 2.5% 1.3% 0.9% 0.8% 0.6% 0.4% 0.3% 0.2% 0.1%
x264 [info]: ref B L1: 96.2% 3.8%
x264 [info]: kb/s:1576.09

Скриншоты

Внимание ! Раздача ведётся путём добавления новых серий

Внимание! Раздача ведётся путём добавления новых серий; при каждом добавлении создаётся новый торрент. Чтобы начать докачку новой серии, пользователям необходимо сделать следующее:
(1) остановить скачивание,
(2) удалить старый торрент у себя из клиента (старые серии удалять не надо),
(3) скачать новый торрент и запустить его у себя в клиенте вместо старого, при этом указать клиенту путь в старую папку куда и должно происходить скачивание новых серий.
Ваш клиент при этом должен произвести хеширование (проверку) старой папки (если не производит сам - помогите ему сделать это), и будет докачивать только те серии которых у вас ещё нет. Старые серии при этом не удаляются, а продолжают раздаваться!
Если вы уже удалили старые серии, то предотвратить повторную закачку старых серий можно, отжав галочку в соответствующих местах при запуске нового торрента. По возможности, желательно не удалять старые серии как можно дольше чтобы релизёр не столько продолжал раздавать старые серии, а смог сконцентрироваться на новых.
-
Other forum [Profile] [PM]
Display posts from previous:    
Reply to topic

The time now is: Today 20:43

All times are GMT + 3 Hours



You cannot post new topics in this forum
You cannot reply to topics in this forum
You cannot edit your posts in this forum
You cannot delete your posts in this forum
You cannot vote in polls in this forum
You cannot attach files in this forum
You cannot download files in this forum