Today is a free download without charge Download

Женить миллионера! / Серии: 1-4 из 4 (Владимир Краснопольский, Валерий Усков) [2010, Мелодрама, SATRip-AVC]

Reply to topic
 
Author
Message

Omen ®

Longevity: 8 years 11 months

Posts: 181086

Торрент-статистика

Post 17-Jan-2013 01:24

[Quote]

Женить миллионера!
Год выпуска: 2010
Производство: «Медиа Фаворит Фильм»
Жанр: Мелодрама
Продолжительность: ~00:43:00
Субтитры: нет
Режиссёр: Владимир Краснопольский, Валерий Усков
В ролях: Лидия Федосеева-Шукшина, Андрей Леонов, Алла Юганова, Наталья Унгард, Евдокия Германова, Алексей Булдаков, Александра Флоринская, Наталья Коренная, Нина Розанцева, Ольга Погодина, Эвелина Сакуро, Виктор Рыбчинский, Анатолий Голуб, Сергей Прокопич, Олег Гарбуз, Елена Родак-Шкуратова, Анастасия Боброва, Полина Стрельникова, Анатолий Калмыков
Описание: Пожилая дама – Нина Петровна – всегда придерживалась твердого правила: выбрать хорошую жену слишком серьезное дело, чтобы доверить его самим мужчинам. Этим принципом она руководствуется и в отношении своего единственного сына Коли, и при открытии брачного агентства «Покой и счастье».
Коля, между тем, за те 16 лет, что мать отгоняет от него хищных прохиндеек, успел превратиться в большого преуспевающего бизнесмена Николая Яковлевича и меньше всего похож на маменькиного сынка. Однако «заботу» о нем матери терпеливо сносит, так как сам не хочет связывать себя брачными узами ни с кем из своих подруг.
Но время идет и возникает реальная опасность, что Николай вообще может не жениться. И тогда Нина Петровна сама, как всегда энергично, берется за поиск для сына подходящей невесты. Все ее старания ни к чему не приводят. Вдруг оказывается, что Николай на самом деле скрытый однолюб, который никак не может забыть свою Люсю, которую мать 16 лет назад с помощью обмана удалила из его жизни. И те самые мелочи, которые в Люсе так раздражали Нину Петровну: пролитое на плиту кофе, пение в ванной, не прожаренная в духовке утка – и были необходимой составляющей для счастья ее сына.

Качество: SATRip-MKV
Формат: MKV
Видео кодек: H.264
Аудио кодек: AAC
Видео: MPEG4 Video (H264) 704x400, ~ 2285 kbps, 25.00fps
Аудио: AAC, 2 канала, 48,0 КГц, ~192 kbps, VBR
Сторонней рекламы нет!

MediaInfo

ОбщееУникальный идентификатор : 202035106409431065710268112315973018895 (0x97FE8BCEDB69510FB6F5B9981672A50F)Полное имя : H:\ФИЛЬМЫ\Женить миллионера! AVC\Женить миллионера! Серия 1 из 4 SATRip_by_Серый1779.mkvФормат : MatroskaВерсия формата : Version 2Размер файла : 735 МбайтПродолжительность : 41 м.Общий поток : 2477 Кбит/секДата кодирования : UTC 2013-01-14 22:43:35Программа кодирования : mkvmerge v4.9.1 ('Ich will') built on Sep 21 2011 17:48:11Библиотека кодирования : libebml v1.2.1 + libmatroska v1.2.0
ВидеоИдентификатор : 1Формат : AVCФормат/Информация : Advanced Video CodecПрофиль формата : [email protected]Параметр CABAC формата : ДаПараметр ReFrames формата : 12 кадровИдентификатор кодека : V_MPEG4/ISO/AVCПродолжительность : 41 м.Битрейт : 2235 Кбит/секШирина : 704 пикселяВысота : 400 пикселейСоотношение сторон : 16:9Режим частоты кадров : ПостоянныйЧастота кадров : 25,000 кадров/секЦветовое пространство : YUVСубдискретизация насыщенности : 4:2:0Битовая глубина : 8 битТип развёртки : ПрогрессивнаяБит/(Пиксели*Кадры) : 0.318Размер потока : 663 Мбайт (90%)Библиотека кодирования : x264 core 118 r2085 8a62835Настройки программы : cabac=1 / ref=12 / deblock=1:-2:-2 / analyse=0x3:0x133 / me=umh / subme=9 / psy=1 / psy_rd=1.00:0.15 / mixed_ref=1 / me_range=32 / chroma_me=1 / trellis=2 / 8x8dct=1 / cqm=0 / deadzone=21,11 / fast_pskip=0 / chroma_qp_offset=-3 / threads=3 / sliced_threads=0 / nr=0 / decimate=1 / interlaced=0 / bluray_compat=0 / constrained_intra=0 / bframes=10 / b_pyramid=2 / b_adapt=2 / b_bias=0 / direct=1 / weightb=1 / open_gop=0 / weightp=2 / keyint=250 / keyint_min=25 / scenecut=40 / intra_refresh=0 / rc_lookahead=50 / rc=crf / mbtree=1 / crf=18.0 / qcomp=0.60 / qpmin=0 / qpmax=69 / qpstep=4 / ip_ratio=1.40 / aq=2:0.80Default : ДаForced : НетОсновные цвета : BT.601 PALХарактеристики трансфера : BT.470 System B, BT.470 System GКоэффициенты матрицы : BT.601
АудиоИдентификатор : 2Формат : MPEG AudioВерсия формата : Version 1Профиль формата : Layer 2Идентификатор кодека : A_MPEG/L2Идентификатор кодека/Подсказка : MP2Продолжительность : 41 м.Вид битрейта : ПостоянныйБитрейт : 192 Кбит/секКаналы : 1 каналЧастота : 48,0 КГцМетод сжатия : С потерямиРазмер потока : 57,0 Мбайт (8%)Default : ДаForced : Нет

h264 log

x264 [info]: frame I:445 Avg QP:15.66 size: 80815x264 [info]: frame P:22397 Avg QP:18.66 size: 23878x264 [info]: frame B:39390 Avg QP:23.26 size: 3542x264 [info]: consecutive B-frames: 15.7% 8.2% 10.9% 19.7% 23.0% 21.7% 0.7% 0.1% 0.0% 0.0% 0.0%x264 [info]: mb I I16..4: 10.2% 64.9% 24.9%x264 [info]: mb P I16..4: 0.2% 3.7% 1.0% P16..4: 46.9% 21.9% 16.1% 4.0% 2.2% skip: 4.0%x264 [info]: mb B I16..4: 0.0% 0.2% 0.1% B16..8: 37.4% 9.8% 3.2% direct: 5.1% skip:44.2% L0:26.6% L1:40.3% BI:33.1%x264 [info]: 8x8 transform intra:73.2% inter:41.8%x264 [info]: coded y,uvDC,uvAC intra: 96.5% 74.8% 48.8% inter: 32.7% 19.2% 3.1%x264 [info]: i16 v,h,dc,p: 24% 11% 29% 35%x264 [info]: i8 v,h,dc,ddl,ddr,vr,hd,vl,hu: 20% 9% 10% 9% 11% 13% 8% 12% 9%x264 [info]: i4 v,h,dc,ddl,ddr,vr,hd,vl,hu: 23% 9% 6% 8% 11% 14% 8% 12% 9%x264 [info]: i8c dc,h,v,p: 34% 25% 25% 15%x264 [info]: Weighted P-Frames: Y:0.8% UV:0.3%x264 [info]: ref P L0: 67.4% 12.7% 10.3% 1.8% 2.0% 1.2% 1.3% 0.6% 0.7% 0.5% 0.6% 0.6% 0.3% 0.0%x264 [info]: ref B L0: 94.9% 3.4% 0.6% 0.3% 0.2% 0.2% 0.1% 0.1% 0.1% 0.1% 0.0%x264 [info]: ref B L1: 98.2% 1.8%x264 [info]: kb/s:2282.68
x264 [total]: encoded 62232 frames, 2.40 fps, 2282.68 kb/s

Внимание ! Раздача ведётся путём добавления новых серий

Внимание! Раздача ведётся путём добавления новых серий; при каждом добавлении создётся новый торрент. Чтобы начать докачку новой серии, пользователям необходимо сделать следующее:
(1) остановить скачивание,
(2) удалить старый торрент у себя из клиента (старые серии удалять не надо),
(3) скачать новый торрент и запустить его у себя в клиенте вместо старого, при этом указать клиенту путь в старую папку куда и должно происходить скачивание новых серий.
Ваш клиент при этом должен произвести хеширование (проверку) старой папки (если не производит сам - помогите ему сделать это), и будет докачивать только те серии которых у вас ещё нет. Старые серии при этом не удаляются, а продолжают раздаваться!
Eсли вы уже удалили старые серии, то предотвратить повторную закачку старых серий можно, отжав галочку в соответсвующих местах при запуске нового торрента. По возможности, желательно не удалять старые серии как можно дольше чтобы релизёр не столько продолжал раздавать старые серии, а смог сконцентрироваться на новых.
ВНИМАНИЕ! ТОРРЕНТ ПЕРЕЗАЛИТ! ДОБАВЛЕНА 4-ая СЕРИИ!

Скриншоты

Other forum [Profile] [PM]
Display posts from previous:    
Reply to topic

The time now is: Today 19:40

All times are GMT + 3 Hours



You cannot post new topics in this forum
You cannot reply to topics in this forum
You cannot edit your posts in this forum
You cannot delete your posts in this forum
You cannot vote in polls in this forum
You cannot attach files in this forum
You cannot download files in this forum