Today is a free download without charge Download

Метод Фрейда / Сезон: 1 / Серии: 12 из 12 (Михаил Вайнберг) [2013, Психологический детектив, HDTVRip 720p]

Reply to topic
 
Author
Message

Omen ®

Longevity: 8 years 11 months

Posts: 181086

Торрент-статистика

Post 17-Jan-2013 01:24

[Quote]

Метод Фрейда
Год выпуска: 2012
Производство: Star Media
Жанр: Детектив, криминал
Продолжительность: 00:50:00
Режиссёр: Михаил Вайнберг
В ролях: Иван Охлобыстин, Наталия Антонова, Елена Николаева, Павел Прилучный, Артур Ваха, Алексей Гришин, Александр Кузнецов, Наталья Рычкова, Алла Подчуфарова, Маргарита Быстрякова, Александр Воробьев, Вячеслав Яковлев, Виктор Маркин, Михаил Люлинецкий, Иван Руденко
Описание: В следственный отдел прокуратуры введен специальный консультант Роман Фрейдин, психолог и профессиональный игрок в покер. В молодости Фрейдин объездил всю Россию и Европу, общался с людьми самых разных профессий. В расследовании преступлений он опирается на интуицию, использует научные методики, воссоздает биокинетические картины событий, психофизические портреты преступников и прогнозирует действия бандитов. Но базовым моментом для Романа является психология.
Сэмпл: http://multi-up.com/814299
Качество: HDTVRip 720p
Формат: MKV
Видео кодек: H.264
Аудио кодек: AC3
Видео: x264 AVC,1280x720,4840 Кбит/сек,25,000 кадров/сек,[email protected]
Аудио: AC3, ,48,0 КГц,192 Kbps,2 канала,256 Кбит/сек

MI

Общее
Уникальный идентификатор : 218568587715857087049943108843056374384 (0xA46EC75F55A4D34298CACAAD5A6BA270)
Полное имя : D:Метод Фрейда.HDTVRip.(720p)Metod.Frejda.(01.seriya.iz.12).2012.HDTVRip.(720p).GeneralFlm.mkv
Формат : Matroska
Версия формата : Version 2
Размер файла : 1,77 Гбайт
Продолжительность : 50 м.
Общий поток : 5018 Кбит/сек
Дата кодирования : UTC 2013-01-11 08:40:46
Программа кодирования : mkvmerge v4.9.1 ('Ich will') сборка от Jul 11 2011 23:53:15
Библиотека кодирования : libebml v1.2.1 + libmatroska v1.1.1
Видео
Идентификатор : 1
Формат : AVC
Формат/Информация : Advanced Video Codec
Профиль формата : [email protected]
Параметр CABAC формата : Да
Параметр ReFrames формата : 5 кадров
Идентификатор кодека : V_MPEG4/ISO/AVC
Продолжительность : 50 м.
Битрейт : 4840 Кбит/сек
Ширина : 1280 пикселей
Высота : 720 пикселей
Соотношение сторон : 16:9
Режим частоты кадров : Постоянный
Частота кадров : 25,000 кадров/сек
Цветовое пространство : YUV
Субдискретизация насыщенности : 4:2:0
Битовая глубина : 8 бит
Тип развёртки : Прогрессивная
Бит/(Пиксели*Кадры) : 0.210
Размер потока : 1,66 Гбайт (94%)
Библиотека кодирования : x264 core 116 r2044 392e762
Настройки программы : cabac=1 / ref=5 / deblock=1:-1:-1 / analyse=0x3:0x113 / me=umh / subme=10 / psy=1 / psy_rd=0.00:0.10 / mixed_ref=1 / me_range=32 / chroma_me=1 / trellis=2 / 8x8dct=1 / cqm=0 / deadzone=21,11 / fast_pskip=0 / chroma_qp_offset=-1 / threads=12 / sliced_threads=0 / nr=0 / decimate=1 / interlaced=0 / bluray_compat=0 / constrained_intra=0 / bframes=5 / b_pyramid=2 / b_adapt=1 / b_bias=0 / direct=1 / weightb=1 / open_gop=0 / weightp=2 / keyint=250 / keyint_min=25 / scenecut=40 / intra_refresh=0 / rc_lookahead=40 / rc=abr / mbtree=1 / bitrate=4840 / ratetol=1.0 / qcomp=0.60 / qpmin=0 / qpmax=69 / qpstep=4 / ip_ratio=1.40 / aq=1:1.00
Default : Да
Forced : Нет
Аудио
Идентификатор : 2
Формат : AC-3
Формат/Информация : Audio Coding 3
Расширение режима : CM (complete main)
Параметр Endianness формата : Big
Идентификатор кодека : A_AC3
Продолжительность : 50 м.
Вид битрейта : Постоянный
Битрейт : 192 Кбит/сек
Каналы : 2 канала
Расположение каналов : Front: L R
Частота : 48,0 КГц
Битовая глубина : 16 бит
Метод сжатия : С потерями
Размер потока : 69,2 Мбайт (4%)
Default : Да
Forced : Нет

Скриншоты

Other forum [Profile] [PM]
Display posts from previous:    
Reply to topic

The time now is: Today 09:59

All times are GMT + 3 Hours



You cannot post new topics in this forum
You cannot reply to topics in this forum
You cannot edit your posts in this forum
You cannot delete your posts in this forum
You cannot vote in polls in this forum
You cannot attach files in this forum
You cannot download files in this forum