Today is a free download without charge Download

Ангел в сердце / Серии: 1-2 из 4 (Елена Николаева) [2012, мелодрама, DVB]

Reply to topic
 
Author
Message

Omen ®

Longevity: 8 years 11 months

Posts: 181086

Торрент-статистика

Post 17-Jan-2013 01:24

[Quote]

Ангел в сердце
«Ангел в сердце» стал последней
работой сына Дмитрия Певцова

Год выпуска: 2012
Производство: Россия
Жанр: мелодрама
Продолжительность: ~00:50:00 серия
Режиссёр: Елена Николаева
В ролях: Дмитрий Певцов, Даниил Певцов, Ольга Дроздова, Анна Михайловская, Сергей Юшкевич, Александр Солдаткин, Татьяна Догилева, Катерина Шпица, Иван Рудаков, Валерий Баринов, Борис Каморзин
Описание: История главных героев начинается в 80-е годы, когда они еще молоды и только заканчивают школу. События происходят в неком южном городе на берегу моря. В дальнейшем действие переместится в наши дни.
Ксения (Анна Михайловская, Ольга Дроздова) и Петр (Даниил Певцов, Дмитрий Певцов), которые любят друг друга с первого класса, только заканчивают школу. Они хотят пожениться и собираются подготовить родителей к этой новости, но в семье Ксении происходит несчастье: ее отцу, занимающему высокий пост, грозит тюремный срок и конфискация имущества. Старый знакомый семьи, партийный руководитель Георгий Дмитриевич (Валерий Баринов), предлагает свою помощь, но выдвигает неожиданное условие. Ксения должна стать женой его сына Дмитрия (Александр Солдаткин, Сергей Юшкевич), студента московского художественного училища, и девушка соглашается, чтобы спасти отца. Петр не может поверить в предательство любимой, но Ксения выходит замуж и покидает родной город.
Спустя двадцать лет в приморский город приезжает на лето известный художник с семьей. Это не кто иные, как Дмитрий, Ксения и их дочь Рита. Ксения идет на встречу одноклассников, где вновь встречает Петра, который стал бизнесменом и журналистом, работающим в самом крупном местном издании. Юная Рита попадает в неприятную ситуацию, выбраться из которой ей помогает Петр, и без памяти влюбляется в своего спасителя.
Дополнительно:4-серийная мелодрама от режиссера Елены Николаевой – это небольшой сериал о любви и обычной жизни людей, рожденных в Советском Союзе. В главных ролях в сериале «Ангел в сердце» снялись такие известные актеры, как Дмитрий Певцов, Татьяна Догилева и Ольга Дроздова. Режиссер Елена Николаева уже известна зрителям по фильмам «Не отрекаются любя», «Попса» и «Девочка».
Обратите внимание! Утром 25 августа 2012 года произошла страшная трагедия – Даниил Певцов упал с третьего этажа дома в центре Москвы. Он отмечал с друзьями встречу одноклассников. Когда Даниил Певцов вышел на балкон в компании девушек, он оперся руками о перила и оторвал ноги от пола – не удержав равновесия, актер упал на асфальт под окна дома. Даниила Певцова доставили в Боткинскую больницу с многочисленными переломами, в том числе основания черепа. Спустя несколько дней медики сообщили, что есть надежда на благоприятный исход лечения, состояние Даниила стабилизировалось. Несмотря на то, что врачи провели две операции, они так и не смогли спасти жизнь юного актера. Даниил Певцов скончался 3 сентября 2012 года в реанимации Боткинской больницы.
Сэмпл: http://multi-up.com/817763
Качество: DVB
Формат: MPEG-PS
Видео кодек: MPEG2
Аудио кодек: MP2
Видео: MPEG2 Video 720x576 (16:9) 25fps 4173 Кбит/сек 0.403
Аудио: MPEG Audio 48000Hz stereo 192kbps

MediaInfo

Общее
Полное имя : C:\Users\User\Ангел в сердце_bySat\02 Ангел в сердце.mpg
Формат : MPEG-PS
Размер файла : 1,60 Гбайт
Продолжительность : 51 м.
Режим общего битрейта : Переменный
Общий поток : 4454 Кбит/сек
Видео
Идентификатор : 224 (0xE0)
Формат : MPEG Video
Версия формата : Version 2
Профиль формата : [email protected]
Параметр BVOP формата : Да
Параметр матрицы формата : Выборочная
Параметр GOP формата : M=3, N=12
Продолжительность : 51 м.
Вид битрейта : Переменный
Битрейт : 4173 Кбит/сек
Максимальный битрейт : 15,0 Мбит/сек
Ширина : 720 пикселей
Высота : 576 пикселей
Соотношение сторон : 16:9
Частота кадров : 25,000 кадров/сек
Стандарт вещания : PAL
Цветовое пространство : YUV
Субдискретизация насыщенности : 4:2:0
Битовая глубина : 8 бит
Тип развёртки : Чересстрочная
Порядок развёртки : Верхнее поле первое
Метод сжатия : С потерями
Бит/(Пиксели*Кадры) : 0.403
Размер потока : 1,50 Гбайт (94%)
Аудио
Идентификатор : 192 (0xC0)
Формат : MPEG Audio
Версия формата : Version 1
Профиль формата : Layer 2
Продолжительность : 51 м.
Вид битрейта : Постоянный
Битрейт : 192 Кбит/сек
Каналы : 2 канала
Частота : 48,0 КГц
Метод сжатия : С потерями
Размер потока : 70,7 Мбайт (4%)

Скриншоты

         
         

Раздача ведется путем добавления новых серий

Внимание! Раздача ведётся путём добавления новых серий; при каждом добавлении создётся новый торрент. Чтобы начать докачку новой серии, пользователям необходимо сделать следующее:
(1) остановить скачивание,
(2) удалить старый торрент у себя из клиента (старые серии удалять не надо),
(3) скачать новый торрент и запустить его у себя в клиенте вместо старого, при этом указать клиенту путь в старую папку куда и должно происходить скачивание новых серий.
Ваш клиент при этом должен произвести хеширование (проверку) старой папки (если не производит сам - помогите ему сделать это), и будет докачивать только те серии которых у вас ещё нет. Старые серии при этом не удаляются, а продолжают раздаваться!
Eсли вы уже удалили старые серии, то предотвратить повторную закачку старых серий можно, отжав галочку в соответствующих местах при запуске нового торрента.
Other forum [Profile] [PM]
Display posts from previous:    
Reply to topic

The time now is: Today 14:04

All times are GMT + 3 Hours



You cannot post new topics in this forum
You cannot reply to topics in this forum
You cannot edit your posts in this forum
You cannot delete your posts in this forum
You cannot vote in polls in this forum
You cannot attach files in this forum
You cannot download files in this forum