Today is a free download without charge Download

Грэбберсы / Grabbers (Джон Райт / Jon Wright) [2012, Великобритания, Ирландия, фантастика, триллер, комедия, BDRip 1080p] Dub + Original (Eng) + Sub (Rus, Eng, Ger)

Reply to topic
 
Author
Message

Omen ®

Longevity: 8 years 5 months

Posts: 181087

Торрент-статистика

Post 17-Jan-2013 01:24

[Quote]

Грэбберсы / Grabbers
Страна: Великобритания, Ирландия
Студия: Forward Films, High Treason Productions, Irish Film Board, Nvizible, Samson Films
Жанр: фантастика, триллер, комедия
Год выпуска: 2012
Продолжительность: 01:33:49
Перевод: Профессиональный (дублированный)
Cубтитры: русские, английские, немецкие
Оригинальная аудиодорожка: английская
Режиссер: Джон Райт / Jon Wright
В ролях: Ричард Койл, Рут Брэдли, Рассел Тови, Лалор Родди, Дэвид Пирс, Нед Деннехи, Луис Демпси, Джонатан Райан, Стюарт Грэхэм, Брона Галлахер, Паскаль Скотт, Клелия Мерфи, Мишель О’Груэгейн, Киллиан Койл, Майкл Хью, Барбара Эдейр, Роз МакКатчен, Ник Чоппинг, Дэниэл Конечны, Лоуренс Доэрти, Ким Мойлан, Дэрран Уотт
Описание: Когда на уединенном ирландском острове высаживаются кровожадные пришельцы, местные жители к собственной радости выясняют, что успешно бороться с монстрами все-таки можно: для этого необходимо всего лишь… хорошенько надраться и больше не просыхать.

Релиз: fanatus
Качество видео: BDRip 1080p
Исходник: Blu-ray disc 1080p (BLUEBIRD)
Контейнер: MKV
Видео: MPEG-4 AVC, 11000 kbps , 1920x816 (2.35:1), 24.000 fps, 0.174 bit/pixel
Аудио 1: русский (AC3, 6 ch, 48 kHz, 384 kbps)
Аудио 2: английский (DTS, 6 ch, 48 kHz, 1 510 Kbps)
Формат субтитров: softsub (SRT)
Главы: есть

MediaInfo

General
Unique ID : 191906103989598260584759476614739069793 (0x905FC56E921CEAD4AC5530B7215D0B61)
Complete name : E:\Grjebbersy.2012.x264.BDRip.(1080p).fanatus.mkv
Format : Matroska
Format version : Version 2
File size : 8.43 GiB
Duration : 1h 33mn
Overall bit rate : 12.9 Mbps
Movie name : Grabbers (2012) - fanatus
Encoded date : UTC 2013-01-16 02:08:20
Writing application : mkvmerge v3.4.0 ('Rapunzel') сборка от May 15 2010 09:38:20
Writing library : libebml v0.8.0 + libmatroska v0.9.0
Video
ID : 1
Format : AVC
Format/Info : Advanced Video Codec
Format profile : [email protected]
Format settings, CABAC : Yes
Format settings, ReFrames : 5 frames
Codec ID : V_MPEG4/ISO/AVC
Duration : 1h 33mn
Bit rate : 11.0 Mbps
Width : 1 920 pixels
Height : 816 pixels
Display aspect ratio : 2.35:1
Frame rate : 24.000 fps
Color space : YUV
Chroma subsampling : 4:2:0
Bit depth : 8 bits
Scan type : Progressive
Bits/(Pixel*Frame) : 0.293
Stream size : 7.02 GiB (83%)
Title : Grabbers (2012)
Writing library : x264 core 128 r2216 198a7ea
Encoding settings : cabac=1 / ref=5 / deblock=1:-3:-2 / analyse=0x3:0x113 / me=umh / subme=11 / psy=1 / psy_rd=1.05:0.05 / mixed_ref=1 / me_range=48 / chroma_me=1 / trellis=2 / 8x8dct=1 / cqm=0 / deadzone=21,11 / fast_pskip=0 / chroma_qp_offset=-3 / threads=16 / lookahead_threads=2 / sliced_threads=0 / nr=0 / decimate=0 / interlaced=0 / bluray_compat=0 / constrained_intra=0 / bframes=8 / b_pyramid=2 / b_adapt=2 / b_bias=0 / direct=3 / weightb=1 / open_gop=0 / weightp=2 / keyint=240 / keyint_min=24 / scenecut=40 / intra_refresh=0 / rc_lookahead=40 / rc=2pass / mbtree=0 / bitrate=11000 / ratetol=1.0 / qcomp=0.60 / qpmin=0 / qpmax=69 / qpstep=4 / cplxblur=20.0 / qblur=0.5 / vbv_maxrate=50000 / vbv_bufsize=62500 / nal_hrd=none / ip_ratio=1.40 / pb_ratio=1.30 / aq=1:0.90
Language : English
Default : Yes
Forced : No
Audio #1
ID : 2
Format : AC-3
Format/Info : Audio Coding 3
Mode extension : CM (complete main)
Format settings, Endianness : Big
Codec ID : A_AC3
Duration : 1h 33mn
Bit rate mode : Constant
Bit rate : 384 Kbps
Channel(s) : 6 channels
Channel positions : Front: L C R, Side: L R, LFE
Sampling rate : 48.0 KHz
Bit depth : 16 bits
Compression mode : Lossy
Stream size : 258 MiB (3%)
Title : Dub
Language : Russian
Default : Yes
Forced : Yes
Audio #2
ID : 3
Format : DTS
Format/Info : Digital Theater Systems
Codec ID : A_DTS
Duration : 1h 33mn
Bit rate mode : Constant
Bit rate : 1 510 Kbps
Channel(s) : 6 channels
Channel positions : Front: L C R, Side: L R, LFE
Sampling rate : 48.0 KHz
Bit depth : 16 bits
Compression mode : Lossy
Stream size : 1 013 MiB (12%)
Title : Original
Language : English
Default : No
Forced : No
Text #1
ID : 4
Format : UTF-8
Codec ID : S_TEXT/UTF8
Codec ID/Info : UTF-8 Plain Text
Language : Russian
Default : No
Forced : No
Text #2
ID : 5
Format : UTF-8
Codec ID : S_TEXT/UTF8
Codec ID/Info : UTF-8 Plain Text
Language : English
Default : No
Forced : No
Text #3
ID : 6
Format : UTF-8
Codec ID : S_TEXT/UTF8
Codec ID/Info : UTF-8 Plain Text
Language : German
Default : No
Forced : No
Menu
00:00:00.000 : :Chapter 01
00:08:23.083 : :Chapter 02
00:19:30.166 : :Chapter 03
00:24:36.458 : :Chapter 04
00:33:55.291 : :Chapter 05
00:41:32.541 : :Chapter 06
00:48:47.458 : :Chapter 07
00:56:14.291 : :Chapter 08
01:01:22.500 : :Chapter 09
01:08:55.291 : :Chapter 10
01:17:27.333 : :Chapter 11
01:27:56.166 : :Chapter 12
01:33:56.125 : :Chapter 13

x264 [info]

---[NoImage] raw [info]: 1920x816p 1:1 @ 24/1 fps (cfr)
---[NoImage] x264 [info]: using SAR=1/1
---[NoImage] x264 [info]: using cpu capabilities: MMX2 SSE2Fast FastShuffle SSEMisalign LZCNT
---[NoImage] x264 [info]: profile High, level 4.1
---[NoImage]
---[NoImage] x264 [info]: frame I:974 Avg QP:15.71 size:217219
---[NoImage] x264 [info]: frame P:29436 Avg QP:18.15 size:102089
---[NoImage] x264 [info]: frame B:104702 Avg QP:20.19 size: 43021
---[NoImage] x264 [info]: consecutive B-frames: 3.1% 4.2% 7.8% 13.3% 12.3% 32.4% 13.0% 12.0% 2.0%
---[NoImage] x264 [info]: mb I I16..4: 16.7% 72.2% 11.1%
---[NoImage] x264 [info]: mb P I16..4: 5.9% 28.2% 1.5% P16..4: 23.2% 24.6% 6.9% 0.0% 0.0% skip: 9.5%
---[NoImage] x264 [info]: mb B I16..4: 2.3% 4.0% 0.2% B16..8: 38.1% 20.8% 3.7% direct: 8.4% skip:22.4% L0:42.4% L1:43.0% BI:14.7%
---[NoImage] x264 [info]: 8x8 transform intra:72.1% inter:61.2%
---[NoImage] x264 [info]: direct mvs spatial:98.6% temporal:1.4%
---[NoImage] x264 [info]: coded y,uvDC,uvAC intra: 72.6% 94.9% 84.3% inter: 36.0% 47.2% 22.8%
---[NoImage] x264 [info]: i16 v,h,dc,p: 61% 6% 7% 26%
---[NoImage] x264 [info]: i8 v,h,dc,ddl,ddr,vr,hd,vl,hu: 7% 7% 17% 9% 12% 11% 12% 11% 14%
---[NoImage] x264 [info]: i4 v,h,dc,ddl,ddr,vr,hd,vl,hu: 10% 8% 10% 8% 13% 13% 13% 11% 14%
---[NoImage] x264 [info]: i8c dc,h,v,p: 62% 12% 11% 15%
---[NoImage] x264 [info]: Weighted P-Frames: Y:2.6% UV:1.3%
---[NoImage] x264 [info]: ref P L0: 48.3% 10.0% 24.0% 8.8% 8.0% 0.9% 0.0%
---[NoImage] x264 [info]: ref B L0: 81.3% 13.4% 4.1% 1.2%
---[NoImage] x264 [info]: ref B L1: 94.7% 5.3%
---[NoImage] x264 [info]: kb/s:10972.00
---[NoImage] encoded 135112 frames, 5.39 fps, 10972.00 kb/s

Скриншот c названием фильма

Скриншоты

Сравнение

zeusarm vs source vs fanatus



Other forum [Profile] [PM]
Display posts from previous:    
Reply to topic

The time now is: Today 10:26

All times are GMT + 3 Hours



You cannot post new topics in this forum
You cannot reply to topics in this forum
You cannot edit your posts in this forum
You cannot delete your posts in this forum
You cannot vote in polls in this forum
You cannot attach files in this forum
You cannot download files in this forum