Today is a free download without charge Download

Долорес Клэйборн / Dolores Claiborne (Тейлор Хэкфорд / Taylor Hackford) [1995, США, триллер, драма, детектив, WEB-DL 720p] DVO (R5) + 2х AVO (Живов, Визгунов) + VO + Sub Rus Eng + Original Eng

Reply to topic
 
Author
Message

Omen ®

Longevity: 8 years 5 months

Posts: 181087

Торрент-статистика

Post 17-Jan-2013 01:24

[Quote]

Долорес Клэйборн / Dolores Claiborne Страна: США
Студия: Castle Rock Entertainment, Columbia Pictures Corporation
Жанр: триллер, драма, детектив
Год выпуска: 1995
Продолжительность: 02:11:31
Перевод 1: Профессиональный (двухголосый закадровый) [DVD R5 (WestVideo)]
Перевод 2: Авторский (одноголосый закадровый) Живов
Перевод 3: Авторский (одноголосый закадровый) Визгунов
Перевод 4: Одноголосый закадровый
Cубтитры: русские, английские
Оригинальная аудиодорожка: английский
Режиссер: Тейлор Хэкфорд / Taylor Hackford
В ролях: Кэти Бейтс, Дженнифер Джейсон Ли, Джуди Парфитт, Кристофер Пламмер, Дэвид Стрэтэйрн, Эрик Богосян, Джон Си Райли, Эллен Муф, Боб Гантон, Рой Купер, Рут Маршалл, Эд Рубин, Дин Эйлертсон
Описание: Всю жизнь Долорес Клэйборн проработала в роскошном доме Веры Донован — самой богатой жительницы небольшого американского острова. Долорес никогда не удалялась от этого островка более, чем на 50 миль. Был у нее муж Джо и дочка Селина. Но муж, пьяница и драчун, умер от несчастного случая много лет назад, а дочка к ней не ездит вот уже пятнадцать лет…
Что же произошло на этот раз, что Селина, ставшая известной журналисткой, бросила все свои дела и помчалась к матери за тридевять земель, хотя особой любви к ней не испытывала?.. Умерла Вера Донован, а местный детектив Джон Мэки вот уже который год имеет зуб на Долорес: он не поверил тогда, много лет назад в случайную смерть Джо, и теперь не верит в несчастный случай с Верой, потому что богачкой написано завещание в пользу Долорес… Это он вызвал Селину…
Доп. информация:

Тип релиза: WEB-DL 720p
Контейнер: MKV
Видео: MPEG-4 AVC Video, 1280x534 / 2,40:1 (16:9) / 3782 kbps / 23,976 fps / [email protected]
Аудио 1: Russian: AC3, 6 ch, 384 kbps, 48 kHz [двухголосый - DVD R5]
Аудио 2: Russian: AC3, 2.0 ch, 192 kbps, 48 kHz [одноголосый - Живов]
Аудио 3: Russian: AC3, 2.0 ch, 192 kbps, 48 kHz [одноголосый - Визгунов]
Аудио 4: Russian: AC3, 2.0 ch, 192 kbps, 48 kHz [одноголосый]
Аудио 5: English: AC3, 6 ch, 384 kbps, 48 kHz [original - DVD R5]
Формат субтитров: softsub (SRT)
Главы:-

MediaInfo

Общее
Уникальный идентификатор : 187642328878107735680635556125191200602 (0x8D2A9916AA3DD4BFA33CF7587ED85F5A)
Полное имя : Долорес Клэйборн 1995.WEB-DL.720p.ПД.3хАО.Eng.mkv
Формат : Matroska
Версия формата : Version 4 / Version 2
Размер файла : 4,81 Гбайт
Продолжительность : 2 ч. 11 м.
Общий поток : 5230 Кбит/сек
Название фильма : Dolores Claiborne (1995)
Дата кодирования : UTC 2012-12-22 18:19:00
Программа кодирования : mkvmerge v5.9.0 ('On The Loose') built on Dec 15 2012 16:39:58
Библиотека кодирования : libebml v1.3.0 + libmatroska v1.4.0
Видео
Идентификатор : 1
Формат : AVC
Формат/Информация : Advanced Video Codec
Профиль формата : [email protected]
Параметр CABAC формата : Нет
Параметр ReFrames формата : 2 кадра
Параметр GOP формата : N=1
Идентификатор кодека : V_MPEG4/ISO/AVC
Продолжительность : 2 ч. 11 м.
Битрейт : 3782 Кбит/сек
Ширина : 1280 пикселей
Высота : 534 пикселя
Соотношение сторон : 2,40:1
Режим частоты кадров : Постоянный
Частота кадров : 23,976 кадра/сек
Цветовое пространство : YUV
Субдискретизация насыщенности : 4:2:0
Битовая глубина : 8 бит
Тип развёртки : Прогрессивная
Бит/(Пиксели*Кадры) : 0.231
Размер потока : 3,48 Гбайт (72%)
Язык : English
Default : Да
Forced : Нет
Основные цвета : BT.709
Характеристики трансфера : BT.709
Коэффициенты матрицы : BT.709
Аудио #1
Идентификатор : 2
Формат : AC-3
Формат/Информация : Audio Coding 3
Расширение режима : CM (complete main)
Параметр Endianness формата : Big
Идентификатор кодека : A_AC3
Продолжительность : 2 ч. 11 м.
Вид битрейта : Постоянный
Битрейт : 384 Кбит/сек
Каналы : 6 каналов
Расположение каналов : Front: L C R, Side: L R, LFE
Частота : 48,0 КГц
Битовая глубина : 16 бит
Метод сжатия : С потерями
Размер потока : 362 Мбайт (7%)
Заголовок : AC3 6ch 384kbps - двухголосый (DVD R5 - WestVideo)
Язык : Russian
Default : Да
Forced : Нет
Аудио #2
Идентификатор : 3
Формат : AC-3
Формат/Информация : Audio Coding 3
Расширение режима : CM (complete main)
Параметр Endianness формата : Big
Идентификатор кодека : A_AC3
Продолжительность : 2 ч. 11 м.
Вид битрейта : Постоянный
Битрейт : 192 Кбит/сек
Каналы : 2 канала
Расположение каналов : Front: L R
Частота : 48,0 КГц
Битовая глубина : 16 бит
Метод сжатия : С потерями
Размер потока : 181 Мбайт (4%)
Заголовок : AC3 2.0ch 192kbps - одноголосый (Живов)
Язык : Russian
Default : Нет
Forced : Нет
Аудио #3
Идентификатор : 4
Формат : AC-3
Формат/Информация : Audio Coding 3
Расширение режима : CM (complete main)
Параметр Endianness формата : Big
Идентификатор кодека : A_AC3
Продолжительность : 2 ч. 11 м.
Вид битрейта : Постоянный
Битрейт : 192 Кбит/сек
Каналы : 2 канала
Расположение каналов : Front: L R
Частота : 48,0 КГц
Битовая глубина : 16 бит
Метод сжатия : С потерями
Размер потока : 181 Мбайт (4%)
Заголовок : AC3 2.0ch 192kbps - одноголосый (Визгунов)
Язык : Russian
Default : Нет
Forced : Нет
Аудио #4
Идентификатор : 5
Формат : AC-3
Формат/Информация : Audio Coding 3
Расширение режима : CM (complete main)
Параметр Endianness формата : Big
Идентификатор кодека : A_AC3
Продолжительность : 2 ч. 11 м.
Вид битрейта : Постоянный
Битрейт : 192 Кбит/сек
Каналы : 2 канала
Расположение каналов : Front: L R
Частота : 48,0 КГц
Битовая глубина : 16 бит
Метод сжатия : С потерями
Размер потока : 181 Мбайт (4%)
Заголовок : AC3 2.0ch 192kbps - одноголосый
Язык : Russian
Default : Нет
Forced : Нет
Аудио #5
Идентификатор : 6
Формат : AC-3
Формат/Информация : Audio Coding 3
Расширение режима : CM (complete main)
Параметр Endianness формата : Big
Идентификатор кодека : A_AC3
Продолжительность : 2 ч. 11 м.
Вид битрейта : Постоянный
Битрейт : 384 Кбит/сек
Каналы : 6 каналов
Расположение каналов : Front: L C R, Side: L R, LFE
Частота : 48,0 КГц
Битовая глубина : 16 бит
Метод сжатия : С потерями
Размер потока : 362 Мбайт (7%)
Заголовок : AC3 6ch 384kbps - original (DVD R5 - WestVideo)
Язык : English
Default : Нет
Forced : Нет
Текст #1
Идентификатор : 7
Формат : UTF-8
Идентификатор кодека : S_TEXT/UTF8
Идентификатор кодека/Информация : UTF-8 Plain Text
Язык : Russian
Default : Нет
Forced : Нет
Текст #2
Идентификатор : 8
Формат : UTF-8
Идентификатор кодека : S_TEXT/UTF8
Идентификатор кодека/Информация : UTF-8 Plain Text
Язык : English
Default : Нет
Forced : Нет
Меню
00:00:00.000 : en:Caught in the act.
00:03:36.000 : en:Selena heads home.
00:07:38.000 : en:A little more to this.
00:10:51.000 : en:Being a bitch.
00:15:22.000 : en:House of memories.
00:22:05.000 : en:Where we are.
00:26:08.000 : en:Wanna' see the dark side?
00:29:46.000 : en:Payback.
00:34:45.000 : en:Years of Vera Donovan.
00:41:42.000 : en:By the root.
00:44:19.000 : en:Doing his job.
00:47:14.000 : en:It's over.
00:49:22.000 : en:On her head.
00:51:34.000 : en:A bad patch.
00:57:02.000 : en:Her scrapbook.
01:00:24.000 : en:Vera's legacy.
01:02:41.000 : en:Never feel better.
01:08:44.000 : en:Kill me now.
01:12:04.000 : en:Define our terms.
01:15:51.000 : en:Truth on the ferry.
01:18:56.000 : en:Missing money.
01:24:51.000 : en:What Selena doesn't remember.
01:27:08.000 : en:An unhappy woman's best friend.
01:33:25.000 : en:Vera's offer.
01:35:50.000 : en:Enjoy the day.
01:39:22.000 : en:Fury under the eclipse.
01:43:59.000 : en:The last of joe.
01:46:58.000 : en:Nobody's gonna' see.
01:51:53.000 : en:What's not in the report.
01:56:51.000 : en:Why we're really here.
02:03:19.000 : en:Not gonna' lose me.
02:06:43.000 : en:End Credits.

Скриншот с названием фильма

Other forum [Profile] [PM]
Display posts from previous:    
Reply to topic

The time now is: Today 09:53

All times are GMT + 3 Hours



You cannot post new topics in this forum
You cannot reply to topics in this forum
You cannot edit your posts in this forum
You cannot delete your posts in this forum
You cannot vote in polls in this forum
You cannot attach files in this forum
You cannot download files in this forum