Today is a free download without charge Download

Ангел в сердце [1-2 серия из 4] (2012) SATRip [Обновляемая]

Reply to topic
 
Author
Message

Omen ®

Longevity: 8 years 11 months

Posts: 181086

Торрент-статистика

Post 17-Jan-2013 01:20

[Quote]

-Ангел в сердце [1-2 серия из 4] (2012) SATRip [Обновляемая]- Русское название: Ангел в сердце
Выпущено: Россия, AMALGAMA STUDIO
Год выпуска: 2012
Жанр: Мелодрама
Перевод: Не требуется (Русский)

Дата российской премьеры: 16 января 2013
Режиссер: Елена Николаева
Актеры: Дмитрий Певцов, Ольга Дроздова, Татьяна Догилева, Катерина Шпица, Сергей Юшкевич, Анна Михайловская, Даниил Певцов, Иван Рудаков, Александр Солдаткин, Валерий Баринов, Борис Каморзин
Описание фильма:
История главных героев начинается в 80-е годы, когда они еще молоды и только заканчивают школу. События происходят в неком южном городе на берегу моря. В дальнейшем действие переместится в наши дни.
Продолжительность: 2 х ~ 00:51:26 серия
Качество видео: SATRip
Видеокодек: DivX 5
Битрейт видео: ~1600 Kbit/s
Размер кадра: 704 x 400
Аудиокодек: MP3, 2.0
Битрейт аудио: 128 Kbit/sВнимание! Раздача ведётся путём добавления новых серий

Внимание! Раздача ведётся путём добавления новых серий. Описание обновления торрента.

Внимание! Раздача ведётся путём добавления новых серий; при каждом добавлении создётся новый торрент. Чтобы начать докачку новой серии, пользователям необходимо сделать следующее:
(1) остановить скачивание,
(2) удалить старый торрент у себя из клиента (старые серии удалять не надо),
(3) скачать новый торрент и запустить его у себя в клиенте вместо старого, при этом указать клиенту путь в старую папку куда и должно происходить скачивание новых серий.
Ваш клиент при этом должен произвести хеширование (проверку) старой папки (если не производит сам - помогите ему сделать это), и будет докачивать только те серии которых у вас ещё нет. Старые серии при этом не удаляются, а продолжают раздаваться!
Eсли вы уже удалили старые серии, то предотвратить повторную закачку старых серий можно, отжав галочку в соответсвующих местах при запуске нового торрента. По возможности, желательно не удалять старые серии как можно дольше чтобы релизёр не столько продолжал раздавать старые серии, а смог сконцентрироваться на новых.

MediaInfo

Общее
Полное имя : D:\Торренты\Ангел в сердце. 2012\Ангел в сердце.01.avi
Формат : AVI
Формат/Информация : Audio Video Interleave
Размер файла : 644 Мбайт
Продолжительность : 51 м.
Общий поток : 1745 Кбит/сек
Видео
Идентификатор : 0
Формат : MPEG-4 Visual
Профиль формата : [email protected]
Параметр BVOP формата : Нет
Параметр QPel формата : Нет
Параметр GMC формата : Без точки перехода
Параметр матрицы формата : Default (H.263)
Идентификатор кодека : DX50
Идентификатор кодека/Подсказка : DivX 5
Продолжительность : 51 м.
Битрейт : 1600 Кбит/сек
Ширина : 704 пикс.
Высота : 400 пикс.
Соотношение сторон : 16:9
Частота кадров : 25,000 кадр/сек
Цветовое пространство : YUV
Подвыборка цветности : 4:2:0
Битовая глубина : 8 бит
Тип развёртки : Прогрессивная
Метод сжатия : С потерями
Бит/(Пиксели*Кадры) : 0.227
Размер потока : 590 Мбайт (92%)
Библиотека кодирования : XviD 1.2.1 (UTC 2008-12-04)
Аудио
Идентификатор : 1
Формат : MPEG Audio
Версия формата : Version 1
Профиль формата : Layer 3
Режим : Joint stereo
Расширение режима : MS Stereo
Идентификатор кодека : 55
Идентификатор кодека/Подсказка : MP3
Продолжительность : 51 м.
Вид битрейта : Постоянный
Битрейт : 128 Кбит/сек
Каналы : 2 канала
Частота : 48,0 КГц
Метод сжатия : С потерями
Размер потока : 47,2 Мбайт (7%)
Выравнивание : Соединение по промежуткам
Продолжительность промежутка : 24 мс. (0,60 видеокадр)
Библиотека кодирования : LAME3.98.2
Скриншоты:
           
Время раздачи: 24/7 по возможности
Other forum [Profile] [PM]
Display posts from previous:    
Reply to topic

The time now is: Today 15:17

All times are GMT + 3 Hours



You cannot post new topics in this forum
You cannot reply to topics in this forum
You cannot edit your posts in this forum
You cannot delete your posts in this forum
You cannot vote in polls in this forum
You cannot attach files in this forum
You cannot download files in this forum