Today is a free download without charge Download

Гуд бай, Ленин! / Good bye, Lenin! (Вольфганг Беккер / Wolfgang Becker) [2003, Германия, комедия, драма, WEB-DL 720p] 2x MVO + original (ger) + sub (rus, ger, eng)

Reply to topic
 
Author
Message

Omen ®

Longevity: 8 years 5 months

Posts: 181087

Торрент-статистика

Post 16-Jan-2013 21:20

[Quote]

Гуд бай, Ленин! / Good bye, Lenin!
Год выпуска: 2003
Страна: Германия
Жанр: комедия, драма
Продолжительность: 01:56:10
Перевод1: Профессиональный (многолосый закадровый)
Перевод2: Профессиональный (многолосый закадровый)
Субтитры: русские, русские комментарии, немецкие, английские
Оригинальная аудиодорожка: немецкий
Режиссер: Вольфганг Беккер / Wolfgang Becker
В ролях: Даниэль Брюль, Катрин Засс, Чулпан Хаматова, Мария Симон, Флориан Лукас, Александр Байер, Бургхарт Клаусснер, Михаэль Гвиздек, Кристине Шорн, Юрген Хольц
Описание: Мать Алекса впала в кому незадолго до падения Берлинской стены. А когда, наконец, пришла в себя, не было уже ни ГДР, ни стран «победившего социализма». Тревожась за здоровье матушки, Алекс решил не сообщать ей о переменах: ведь что может стать более убийственным для убеждённой коммунистки, чем торжество капитализма?
Сыну пришлось пойти на обман и превратить свою квартиру в островок прошлого, в последний оплот несуществующего государства. Старательно делать вид, что дело Ленина по-прежнему живет и побеждает.

Награды и номинации:
Золотой глобус, 2004 - (Номинация) Лучший фильм на иностранном языке
Британская академия, 2004 - (Номинация) Лучший фильм на иностранном языке
Берлинский кинофестиваль, 2003 - Специальный приз фестиваля Blue Angel за лучший европейский фильм
Берлинский кинофестиваль, 2003 - (Номинация) Золотой Медведь

Все аудиодороги с DVD9 (Custom), подогнаны без перекодировки.
Качество: WEB-DL 720p (BS)
Формат: MKV
Видео кодек: H.264
Аудио кодек: AC3
Видео: 1274 x 720; 25,00 fps; 4127 Kbps
Аудио1: Русский, AC3 5.1 384 Kbps 48,0 КГц
Аудио2: Русский, AC3 5.1 448 Kbps 48,0 КГц
Аудио3: Deutsch, AC3 5.1 448 Kbps 48,0 КГц
Субтитры: Soft Sub (SRT)

MediaInfo

Общее
Уникальный идентификатор : 247179719999617319891762633097033682825 (0xB9F5151ABD2151FC99A28358FE120F89)
Полное имя : D:\HDFILMS\Good.Bye.Lenin.2003.720p.WEB-DL.2xRus.Ger.mkv
Формат : Matroska
Версия формата : Version 2
Размер файла : 4,48 Гбайт
Продолжительность : 1 ч. 56 м.
Общий поток : 5517 Кбит/сек
Название фильма : Good bye, Lenin!
Дата кодирования : UTC 2013-01-10 07:58:05
Программа кодирования : mkvmerge v5.3.0 ('I could have danced') built on Feb 9 2012 10:38:07
Библиотека кодирования : libebml v1.2.3 + libmatroska v1.3.0
Видео
Идентификатор : 1
Формат : AVC
Формат/Информация : Advanced Video Codec
Профиль формата : [email protected].1
Параметр CABAC формата : Нет
Параметр ReFrames формата : 2 кадра
Параметр GOP формата : N=1
Идентификатор кодека : V_MPEG4/ISO/AVC
Продолжительность : 1 ч. 56 м.
Битрейт : 4127 Кбит/сек
Ширина : 1274 пикселя
Высота : 720 пикселей
Соотношение сторон : 16:9
Режим частоты кадров : Постоянный
Частота кадров : 25,000 кадров/сек
Цветовое пространство : YUV
Субдискретизация насыщенности : 4:2:0
Битовая глубина : 8 бит
Тип развёртки : Прогрессивная
Бит/(Пиксели*Кадры) : 0.180
Размер потока : 3,35 Гбайт (75%)
Заголовок : Good.Bye.Lenin.2003.720p.WEB-DL.AAC2.0.H.264-BS
Default : Нет
Forced : Нет
Основные цвета : BT.709
Характеристики трансфера : BT.709
Коэффициенты матрицы : BT.709
Аудио #1
Идентификатор : 2
Формат : AC-3
Формат/Информация : Audio Coding 3
Расширение режима : CM (complete main)
Параметр Endianness формата : Big
Идентификатор кодека : A_AC3
Продолжительность : 1 ч. 56 м.
Вид битрейта : Постоянный
Битрейт : 384 Кбит/сек
Каналы : 6 каналов
Расположение каналов : Front: L C R, Side: L R, LFE
Частота : 48,0 КГц
Битовая глубина : 16 бит
Метод сжатия : С потерями
Размер потока : 319 Мбайт (7%)
Заголовок : MVO AC3 5.1 384 kbps
Язык : Russian
Default : Нет
Forced : Нет
Аудио #2
Идентификатор : 3
Формат : AC-3
Формат/Информация : Audio Coding 3
Расширение режима : CM (complete main)
Параметр Endianness формата : Big
Идентификатор кодека : A_AC3
Продолжительность : 1 ч. 56 м.
Вид битрейта : Постоянный
Битрейт : 448 Кбит/сек
Каналы : 6 каналов
Расположение каналов : Front: L C R, Side: L R, LFE
Частота : 48,0 КГц
Битовая глубина : 16 бит
Метод сжатия : С потерями
Размер потока : 372 Мбайт (8%)
Заголовок : MVO AC3 5.1 448 kbps
Язык : Russian
Default : Нет
Forced : Нет
Аудио #3
Идентификатор : 4
Формат : AC-3
Формат/Информация : Audio Coding 3
Расширение режима : CM (complete main)
Параметр Endianness формата : Big
Идентификатор кодека : A_AC3
Продолжительность : 1 ч. 56 м.
Вид битрейта : Постоянный
Битрейт : 448 Кбит/сек
Каналы : 6 каналов
Расположение каналов : Front: L C R, Side: L R, LFE
Частота : 48,0 КГц
Битовая глубина : 16 бит
Метод сжатия : С потерями
Размер потока : 372 Мбайт (8%)
Заголовок : Original AC3 5.1 448 kbps
Язык : German
Default : Нет
Forced : Нет
Текст #1
Идентификатор : 5
Формат : UTF-8
Идентификатор кодека : S_TEXT/UTF8
Идентификатор кодека/Информация : UTF-8 Plain Text
Язык : Russian
Default : Нет
Forced : Нет
Текст #2
Идентификатор : 6
Формат : UTF-8
Идентификатор кодека : S_TEXT/UTF8
Идентификатор кодека/Информация : UTF-8 Plain Text
Заголовок : Commentary
Язык : Russian
Default : Нет
Forced : Нет
Текст #3
Идентификатор : 7
Формат : UTF-8
Идентификатор кодека : S_TEXT/UTF8
Идентификатор кодека/Информация : UTF-8 Plain Text
Язык : German
Default : Нет
Forced : Нет
Текст #4
Идентификатор : 8
Формат : UTF-8
Идентификатор кодека : S_TEXT/UTF8
Идентификатор кодека/Информация : UTF-8 Plain Text
Язык : English
Default : Нет
Forced : Нет
Меню
00:00:00.000 : en:1
00:08:02.000 : en:2
00:14:51.000 : en:3
00:21:00.000 : en:4
00:26:53.000 : en:5
00:34:50.000 : en:6
00:40:27.000 : en:7
00:49:45.000 : en:8
00:58:00.000 : en:9
01:05:26.000 : en:10
01:10:36.000 : en:11
01:20:50.000 : en:12
01:28:34.000 : en:13
01:34:47.000 : en:14
01:39:52.000 : en:15
01:49:29.000 : en:16

Скриншоты

Other forum [Profile] [PM]
Display posts from previous:    
Reply to topic

The time now is: Today 02:25

All times are GMT + 3 Hours



You cannot post new topics in this forum
You cannot reply to topics in this forum
You cannot edit your posts in this forum
You cannot delete your posts in this forum
You cannot vote in polls in this forum
You cannot attach files in this forum
You cannot download files in this forum