Today is a free download without charge Download

В финале Джон умрёт / John Dies at the End (Дон Коскарелли / Don Coscarelli) [2012, США, ужасы, фэнтези, комедия, WEB-DL 720p] DVO + original (eng) + sub (rus, eng)

Reply to topic
 
Author
Message

Omen ®

Longevity: 8 years 5 months

Posts: 181087

Торрент-статистика

Post 16-Jan-2013 21:20

[Quote]

В финале Джон умрёт / John Dies at the End-Год выпуска: 2012
Страна: США
Жанр: ужасы, фэнтези, комедия
Продолжительность: 01:39:32
Перевод: Любительский (двухголосый) [den904 и DeadSno]
Субтитры: русские, английские
Оригинальная аудиодорожка: английский
Режиссер: Дон Коскарелли / Don Coscarelli
В ролях: Чейз Уильямсон, Роб Майес, Пол Джаматти, Клэнси Браун, Глинн Тёрмен, Даг Джонс, Дэниэл Робак, Фаббианн Терез, Джонни Уэстон, Джимми Вонг
Описание: Новый препарат, наркотик, наводнил улицы, его действие — просто сумашествие, но есть один страшный побочный эффект — после употребления не все возвращаются в реальный мир людьми… Два друга, Джон и Дэвид, оказываются ввязаны в историю с адским препаратом и вынуждены противостоять надвигающемуся ужасу так спешащему выбраться в наш мир через эту дрянь.
SAMPLE
Format : Matroska at 4784 Кбит/сек
Length : 3,35 Гбайт for 1 ч. 40 м. 22 с. 218 мс.
Video #0 : AVC at 3921 Кбит/сек
Aspect : 1280 x 718 (1.783) at 23.976 fps
Audio #0 : AC-3 at 384 Кбит/сек
Infos : 6 каналов, 48,0 КГц
Language : en
Audio #1 : AC-3 at 384 Кбит/сек
Infos : 6 каналов, 48,0 КГц
Language : ru
Text #0 : UTF-8
Language : en
Text #1 : UTF-8
Language : ru

MediaInfo

Общее
Уникальный идентификатор : 203222278219225917643034045802052128852 (0x98E32FE5B6A91BD5970D91305DB51054)
Полное имя :В финале Джон умрет - John Dies at the End (2012) WEB-DL 720p.mkv
Формат : Matroska
Версия формата : Version 2
Размер файла : 3,35 Гбайт
Продолжительность : 1 ч. 40 м.
Общий поток : 4784 Кбит/сек
Название фильма : John Dies at the End
Дата кодирования : UTC 2013-01-08 21:10:38
Программа кодирования : mkvmerge v5.3.0 ('I could have danced') built on Feb 9 2012 10:38:07
Библиотека кодирования : libebml v1.2.3 + libmatroska v1.3.0
Видео
Идентификатор : 1
Формат : AVC
Формат/Информация : Advanced Video Codec
Профиль формата : [email protected]
Параметр CABAC формата : Нет
Параметр ReFrames формата : 2 кадра
Идентификатор кодека : V_MPEG4/ISO/AVC
Продолжительность : 1 ч. 40 м.
Битрейт : 3921 Кбит/сек
Ширина : 1280 пикселей
Высота : 718 пикселей
Соотношение сторон : 16:9
Режим частоты кадров : Постоянный
Частота кадров : 23,976 кадра/сек
Цветовое пространство : YUV
Субдискретизация насыщенности : 4:2:0
Битовая глубина : 8 бит
Тип развёртки : Прогрессивная
Бит/(Пиксели*Кадры) : 0.178
Размер потока : 2,75 Гбайт (82%)
Заголовок : John.Dies.At.The.End.2012.720p.WEB-DL.H264-WEBiOS
Язык : English
Default : Да
Forced : Нет
Основные цвета : BT.709
Характеристики трансфера : BT.709
Коэффициенты матрицы : BT.709
Аудио #1
Идентификатор : 2
Формат : AC-3
Формат/Информация : Audio Coding 3
Расширение режима : CM (complete main)
Параметр Endianness формата : Big
Идентификатор кодека : A_AC3
Продолжительность : 1 ч. 40 м.
Вид битрейта : Постоянный
Битрейт : 384 Кбит/сек
Каналы : 6 каналов
Расположение каналов : Front: L C R, Side: L R, LFE
Частота : 48,0 КГц
Битовая глубина : 16 бит
Метод сжатия : С потерями
Размер потока : 276 Мбайт (8%)
Язык : English
Default : Нет
Forced : Нет
Аудио #2
Идентификатор : 4
Формат : AC-3
Формат/Информация : Audio Coding 3
Расширение режима : CM (complete main)
Параметр Endianness формата : Big
Идентификатор кодека : A_AC3
Продолжительность : 1 ч. 40 м.
Вид битрейта : Постоянный
Битрейт : 384 Кбит/сек
Каналы : 6 каналов
Расположение каналов : Front: L C R, Side: L R, LFE
Частота : 48,0 КГц
Битовая глубина : 16 бит
Метод сжатия : С потерями
Размер потока : 276 Мбайт (8%)
Заголовок : den904 и DeadSno
Язык : Russian
Default : Да
Forced : Да
Текст #1
Идентификатор : 3
Формат : UTF-8
Идентификатор кодека : S_TEXT/UTF8
Идентификатор кодека/Информация : UTF-8 Plain Text
Язык : English
Default : Нет
Forced : Нет
Текст #2
Идентификатор : 5
Формат : UTF-8
Идентификатор кодека : S_TEXT/UTF8
Идентификатор кодека/Информация : UTF-8 Plain Text
Язык : Russian
Default : Нет
Forced : Нет
Меню
00:00:00.000 : en:Chapter 1
00:02:09.000 : en:Chapter 2
00:12:10.000 : en:Chapter 3
00:21:54.000 : en:Chapter 4
00:31:23.000 : en:Chapter 5
00:41:55.000 : en:Chapter 6
00:50:16.000 : en:Chapter 7
01:00:40.000 : en:Chapter 8
01:12:35.000 : en:Chapter 9
01:17:51.000 : en:Chapter 10
01:26:24.000 : en:Chapter 11
01:33:19.000 : en:Chapter 12
Other forum [Profile] [PM]
Display posts from previous:    
Reply to topic

The time now is: Today 03:23

All times are GMT + 3 Hours



You cannot post new topics in this forum
You cannot reply to topics in this forum
You cannot edit your posts in this forum
You cannot delete your posts in this forum
You cannot vote in polls in this forum
You cannot attach files in this forum
You cannot download files in this forum