Today is a free download without charge Download

Легкое поведение / Easy Virtue (Стефан Эллиотт / Stephan Elliott) [2008 г., мелодрама, комедия, BDRip 1080p] Dub + Original eng + Subs (Rus, Eng)

Reply to topic
 
Author
Message

Omen ®

Longevity: 8 years 5 months

Posts: 181087

Торрент-статистика

Post 16-Jan-2013 21:20

[Quote]

Легкое поведение / Easy Virtue
«Давайте вести себя плохо!»
-Год выпуска: 2008
Выпущено: Великобритания, Канада / Ealing Studios, Fragile Films, Endgame Entertainment
Жанр: мелодрама, комедия
Продолжительность: 01:36:36
Перевод: Дублированный + Английский (оригинал) + Комментарии (оригинал)
Режиссер: Стефан Эллиотт / Stephan Elliott
В ролях: Джессика Бил, Бен Барнс, Кристин Скотт Томас, Колин Фёрт, Кимберли Никсон, Кэтрин Паркинсон, Крис Маршалл, Кристиан Брассингтон, Шарлотта Райли, Джим МакМанус, Пип Торренс, Джорджи Глен-Сюжет: Молодой англичанин Джон Уитэкер страстно влюбляется в сексуальную американку Лариту. Бурный роман, горячие простыни, скорый брак и нежный медовый месяц с романтическими коктейлями на побережье… Но, выходя замуж, Ларита даже в страшном сне не могла себе представить, какое будущее ее ждет. Оказавшись в классическом чопорном английском доме, избалованной красотке приходится выдержать смертельную схватку… со свекровью, которая ну никак не может мириться с легким поведением своей невестки.-IMDB // КиноПоиск // Сэмпл-Исходник: EASY_VIRTUE_BD_BLUEBIRD
Качество видео: BDRip 1080p
Формат: MKV
Видео кодек: AVC
Аудио кодек: AC3
Видео: AVC, 1920 x 820, 23.976 fps, ~15158 Кбит/с
Аудио #1: AC3, 448 Кбит/с, 48 kHz (6 ch) Russian R5
Аудио #2: AC3, 640 Кбит/с, 48 kHz (6 ch) English
Аудио #3: AC3, 192 Кбит/с, 48 kHz (2 ch) English / Commentary
Cубтитры: Русские, Английские (Light, SDH, Commentary)
Навигация: 16 глав-Доп. информация: За субтитры большое спасибо bugariarmando
За синхрон Украинской дорожки большое спасибо Exner
-

Украинский многоголосый

Украинский многоголосый от "Tretyakoff Production" на замовлення компанії "Аврора", 2009 рік.
Перевод не добавлен в раздачу по причине не соответствия критериям: Критерии присвоения статусов # сомнительно и T временная.
Качество не плохое, звук чистый, но срез частоты аудио на ~16 Hz.
AC3, 192 Кбит/с, 48 kHz (2 ch) => Easy.Virtue.2008.1080p.BluRay.Rus.2xEng.Ukr

Encode vs Source vs «old»





MediaInfo / final.xlog

final.xlog

Код:
[13:48:47,99 02.01.2013] Encoding video.avs : pass 1 of 1 at --crf 17.7
--crf 17.7 -p 1 --stats "D:\Zagotovki\Encode x264\video.crfmulti.stats" --preset veryslow --psy-rd 1.00:0.00 --slow-firstpass -b 11 -r 4 -f -3,-3 --vbv-maxrate 50000 --vbv-bufsize 62500 --level 4.1 -A all --subme 11 --me umh --merange 64 --b-pyramid normal --no-mbtree --no-fast-pskip --qcomp 0.75 --rc-lookahead 60 --keyint 240 --ipratio 1.30 --pbratio 1.15 --aq-mode 3 --aq-strength 0.60  --sar 1:1 --colormatrix "bt709" -o "video.avs.17.7.1pass.veryslow.264"
32bit OS detected: x86
avs [info]: 1920x820p 1:1 @ 24000/1001 fps (cfr)
x264 [info]: using SAR=1/1
x264 [info]: using cpu capabilities: MMX2 SSE2Fast SSSE3 FastShuffle SSE4.1 Cache64
x264 [info]: profile High, level 4.1
x264 [info]: cabac=1 ref=4 deblock=1:-3:-3 analyse=0x3:0x133 me=umh subme=11 psy=1 fade_compensate=0.00 psy_rd=1.00:0.00 mixed_ref=1 me_range=64 chroma_me=1 trellis=2 8x8dct=1 cqm=0 deadzone=21,11 fast_pskip=0 chroma_qp_offset=-2 threads=6 lookahead_threads=1 sliced_threads=0 nr=0 decimate=1 interlaced=0 bluray_compat=0 constrained_intra=0 bframes=11 b_pyramid=2 b_adapt=2 b_bias=0 direct=3 weightb=1 open_gop=0 weightp=2 keyint=240 keyint_min=23 scenecut=40 intra_refresh=0 rc_lookahead=60 rc=crf mbtree=0 crf=17.7000 qcomp=0.75 qpmin=0 qpmax=69 qpstep=4 vbv_maxrate=50000 vbv_bufsize=62500 crf_max=0.0 nal_hrd=none ip_ratio=1.30 pb_ratio=1.15 aq=3:0.60
x264 [info]: frame I:948   Avg QP:15.47  size:212125
x264 [info]: frame P:26106 Avg QP:16.80  size:104915
x264 [info]: frame B:111931 Avg QP:17.93  size: 71865
x264 [info]: consecutive B-frames:  1.3%  0.9%  4.1% 11.2% 11.7% 58.7%  6.0%  1.4%  1.1%  1.4%  1.2%  1.1%
x264 [info]: mb I  I16..4:  8.2% 82.8%  9.0%
x264 [info]: mb P  I16..4:  1.5% 25.8%  1.6%  P16..4: 23.5% 29.1% 10.3%  1.4%  0.1%    skip: 6.7%
x264 [info]: mb B  I16..4:  0.5%  8.4%  0.3%  B16..8: 35.6% 21.9%  4.1%  direct:11.3%  skip:17.9%  L0:41.1% L1:41.4% BI:17.5%
x264 [info]: 8x8 transform intra:89.8% inter:57.3%
x264 [info]: direct mvs  spatial:100.0% temporal:0.0%
x264 [info]: coded y,uvDC,uvAC intra: 93.2% 93.3% 81.4% inter: 50.6% 43.8% 13.7%
x264 [info]: i16 v,h,dc,p: 32% 10% 14% 45%
x264 [info]: i8 v,h,dc,ddl,ddr,vr,hd,vl,hu: 10%  7% 13% 10% 12% 12% 11% 12% 12%
x264 [info]: i4 v,h,dc,ddl,ddr,vr,hd,vl,hu: 27%  6% 12%  8% 10% 10%  8%  9%  9%
x264 [info]: i8c dc,h,v,p: 53% 18% 14% 15%
x264 [info]: Weighted P-Frames: Y:3.3% UV:1.4%
x264 [info]: ref P L0: 47.4%  9.3% 28.7% 14.0%  0.6%  0.0%
x264 [info]: ref B L0: 84.3% 12.8%  2.9%
x264 [info]: ref B L1: 90.8%  9.2%
x264 [info]: kb/s:15158.46
[15:08:03,24 03.01.2013] ======== encoded 138985 frames, 1.52 fps, 15158.46 kb/s, duration 25:19:13.68 ========
Код:
General
Unique ID                                : 249471279511126507678163484161314474994 (0xBBAE6BB61BD1350394882D71D1454BF2)
Complete name                            : D:\VIDEO\Easy.Virtue.2008.1080p.BluRay.Rus.2xEng.mkv
Format                                   : Matroska
Format version                           : Version 2
File size                                : 11.1 GiB
Duration                                 : 1h 36mn
Overall bit rate                         : 16.4 Mbps
Movie name                               : Easy Virtue (2008)
Encoded date                             : UTC 2013-01-07 14:27:18
Writing application                      : mkvmerge v5.8.0 ('No Sleep / Pillow') built on Sep  2 2012 15:37:04
Writing library                          : libebml v1.2.3 + libmatroska v1.3.0
Attachment                               : Yes
Video
ID                                       : 1
Format                                   : AVC
Format/Info                              : Advanced Video Codec
Format profile                           : [email protected]
Format settings, CABAC                   : Yes
Format settings, ReFrames                : 4 frames
Codec ID                                 : V_MPEG4/ISO/AVC
Duration                                 : 1h 36mn
Bit rate                                 : 14.8 Mbps
Width                                    : 1 920 pixels
Height                                   : 820 pixels
Display aspect ratio                     : 2.35:1
Frame rate mode                          : Constant
Frame rate                               : 23.976 fps
Color space                              : YUV
Chroma subsampling                       : 4:2:0
Bit depth                                : 8 bits
Scan type                                : Progressive
Bits/(Pixel*Frame)                       : 0.393
Stream size                              : 10.0 GiB (90%)
Title                                    : Easy Virtue
Writing library                          : x264 core 129 r2230kMod 1cffe9f
Encoding settings                        : cabac=1 / ref=4 / deblock=1:-3:-3 / analyse=0x3:0x133 / me=umh / subme=11 / psy=1 / fade_compensate=0.00 / psy_rd=1.00:0.00 / mixed_ref=1 / me_range=64 / chroma_me=1 / trellis=2 / 8x8dct=1 / cqm=0 / deadzone=21,11 / fast_pskip=0 / chroma_qp_offset=-2 / threads=6 / lookahead_threads=1 / sliced_threads=0 / nr=0 / decimate=1 / interlaced=0 / bluray_compat=0 / constrained_intra=0 / bframes=11 / b_pyramid=2 / b_adapt=2 / b_bias=0 / direct=3 / weightb=1 / open_gop=0 / weightp=2 / keyint=240 / keyint_min=23 / scenecut=40 / intra_refresh=0 / rc_lookahead=60 / rc=crf / mbtree=0 / crf=17.7000 / qcomp=0.75 / qpmin=0 / qpmax=69 / qpstep=4 / vbv_maxrate=50000 / vbv_bufsize=62500 / crf_max=0.0 / nal_hrd=none / ip_ratio=1.30 / pb_ratio=1.15 / aq=3:0.60
Language                                 : English
Default                                  : Yes
Forced                                   : No
Matrix coefficients                      : BT.709
Audio #1
ID                                       : 2
Format                                   : AC-3
Format/Info                              : Audio Coding 3
Mode extension                           : CM (complete main)
Format settings, Endianness              : Big
Codec ID                                 : A_AC3
Duration                                 : 1h 36mn
Bit rate mode                            : Constant
Bit rate                                 : 448 Kbps
Channel(s)                               : 6 channels
Channel positions                        : Front: L C R, Side: L R, LFE
Sampling rate                            : 48.0 KHz
Bit depth                                : 16 bits
Compression mode                         : Lossy
Stream size                              : 310 MiB (3%)
Title                                    : AC3 5.1 @ 448 kbps - Дубляж
Language                                 : Russian
Default                                  : Yes
Forced                                   : No
Audio #2
ID                                       : 3
Format                                   : AC-3
Format/Info                              : Audio Coding 3
Mode extension                           : CM (complete main)
Format settings, Endianness              : Big
Codec ID                                 : A_AC3
Duration                                 : 1h 36mn
Bit rate mode                            : Constant
Bit rate                                 : 640 Kbps
Channel(s)                               : 6 channels
Channel positions                        : Front: L C R, Side: L R, LFE
Sampling rate                            : 48.0 KHz
Bit depth                                : 16 bits
Compression mode                         : Lossy
Stream size                              : 442 MiB (4%)
Title                                    : AC3 5.1 @ 640 kbps - Оригинал
Language                                 : English
Default                                  : No
Forced                                   : No
Audio #3
ID                                       : 4
Format                                   : AC-3
Format/Info                              : Audio Coding 3
Format profile                           : Dolby Digital
Mode extension                           : CM (complete main)
Format settings, Endianness              : Big
Codec ID                                 : A_AC3
Duration                                 : 1h 36mn
Bit rate mode                            : Constant
Bit rate                                 : 192 Kbps
Channel(s)                               : 2 channels
Channel positions                        : Front: L R
Sampling rate                            : 48.0 KHz
Bit depth                                : 16 bits
Compression mode                         : Lossy
Stream size                              : 133 MiB (1%)
Title                                    : AC3 2.0 @ 192 kbps - Commentary
Language                                 : English
Default                                  : No
Forced                                   : No
Text #1
ID                                       : 5
Format                                   : UTF-8
Codec ID                                 : S_TEXT/UTF8
Codec ID/Info                            : UTF-8 Plain Text
Title                                    : Русские
Language                                 : Russian
Default                                  : No
Forced                                   : No
Text #2
ID                                       : 6
Format                                   : UTF-8
Codec ID                                 : S_TEXT/UTF8
Codec ID/Info                            : UTF-8 Plain Text
Title                                    : Английские - Light
Language                                 : English
Default                                  : No
Forced                                   : No
Text #3
ID                                       : 7
Format                                   : UTF-8
Codec ID                                 : S_TEXT/UTF8
Codec ID/Info                            : UTF-8 Plain Text
Title                                    : Английские - SDH
Language                                 : English
Default                                  : No
Forced                                   : No
Text #4
ID                                       : 8
Format                                   : UTF-8
Codec ID                                 : S_TEXT/UTF8
Codec ID/Info                            : UTF-8 Plain Text
Title                                    : Commentary
Language                                 : English
Default                                  : No
Forced                                   : No
Menu
00:00:00.000                             : en:Chapter 1
00:02:37.782                             : en:Chapter 2
00:06:16.793                             : en:Chapter 3
00:13:42.738                             : en:Chapter 4
00:21:24.366                             : en:Chapter 5
00:25:00.582                             : en:Chapter 6
00:30:59.190                             : en:Chapter 7
00:37:17.526                             : en:Chapter 8
00:44:58.362                             : en:Chapter 9
00:52:45.996                             : en:Chapter 10
01:01:50.915                             : en:Chapter 11
01:08:34.777                             : en:Chapter 12
01:13:36.703                             : en:Chapter 13
01:19:04.030                             : en:Chapter 14
01:26:45.074                             : en:Chapter 15
01:29:58.184                             : en:Chapter 16
Other forum [Profile] [PM]
Display posts from previous:    
Reply to topic

The time now is: Today 01:39

All times are GMT + 3 Hours



You cannot post new topics in this forum
You cannot reply to topics in this forum
You cannot edit your posts in this forum
You cannot delete your posts in this forum
You cannot vote in polls in this forum
You cannot attach files in this forum
You cannot download files in this forum