Today is a free download without charge Download

Псих 9 / Psych:9 (Эндрю Шортелл / Andrew Shortell) [2010, США, Великобритания, Чехия, ужасы, триллер, детектив, BDRemux 1080p] DVO (Электричка) + DVO (КэП) + Original Eng + Subs (Rus, Eng)

Reply to topic
 
Author
Message

Omen ®

Longevity: 8 years 5 months

Posts: 181087

Торрент-статистика

Post 16-Jan-2013 21:20

[Quote]

Псих 9 / Psych:9 «Fear is All in the Mind...?» Год выпуска: 2010
Страна: США, Великобритания, Чехия
Жанр: ужасы, триллер, детектив
Продолжительность: 01:38:01.706
Перевод 1: Любительский (двухголосый закадровый) Электричка
Перевод 2: Любительский (двухголосый закадровый) КэП
Оригинальная аудиодорожка: Английская
Субтитры: Русские (Max_FlexO), английские (полные)
Студия: Green Card Pictures, International Production Company
Режиссёр: Эндрю Шортелл / Andrew Shortell
В ролях: Сара Фостер, Кэри Элвис, Майкл Бьен, Гэбриел Манн, Коллин Кэмп, Винтер Б. Уларик, Сьюзи Эми, Джоэль Кирби, Кэтерин Шанклин, Стивен Фишер и др.
Описание: Молодая героиня, с несчастным прошлым, устраивается на работу в недавно закрытую больницу, чтобы привести в порядок перепутанную документацию - дела пациентов. Работая в одиночку, после наступления темноты, она начинает подозревать, что больница имеет причастность к множеству убийств, совершенных за последнее время в округе…
  • Кинопоиск
  • IMDB
  • Blu-ray.com
  • Сэмпл
    Качество: BDRemux 1080p
    Контейнер: MKV
    Видео кодек: H.264
    Аудио кодек: Dolby Digital Audio / DTS Audio / DTS-HD Master Audio
    Видео: MPEG-4 AVC Video / 19995 kbps / 1920x1080p / 23,976 fps / 16:9 / High Profile 4.1
    Аудио 1: Русский / DTS Audio / 1536 kbps / 5.1 / 48 kHz / 24-bit (DVO Электричка)
    Аудио 2: Русский / Dolby Digital Audio / 448 kbps / 5.1 / 48 kHz / 16-bit (DVO КэП)
    Аудио 3: English / DTS-HD Master Audio / 3618 kbps / 5.1 / 48 kHz / 24-bit (DTS Core: 5.1 / 48 kHz / 1509 kbps / 24-bit) (Оригинал)
    Навигация по главам: Есть

Скриншот с названием фильма

MediaInfo

Z:\/*spam*/\Псих 9 (Psych 9) 2010, США, Великобритания, Чехия, ужасы, триллер, детектив, BDRemux 1080p GORENOISE.mkv
General
Unique ID : 246555545524283076763231790298731918485 (0xB97CDEED45D2605989045B5A8BD83495)
Complete name : Z:\/*spam*/\Псих 9 (Psych 9) 2010, США, Великобритания, Чехия, ужасы, триллер, детектив, BDRemux 1080p GORENOISE.mkv
Format : Matroska
Format version : Version 4 / Version 2
File size : 17.5 GiB
Duration : 1h 38mn
Overall bit rate mode : Variable
Overall bit rate : 25.5 Mbps
Movie name : GORENOISE
Encoded date : UTC 2010-02-22 21:41:31
Writing application : mkvmerge v5.9.0 ('On The Loose') built on Dec 9 2012 15:37:01
Writing library : libebml v1.3.0 + libmatroska v1.4.0
Video #1
ID : 1
Format : AVC
Format/Info : Advanced Video Codec
Format profile : [email protected]
Format settings, CABAC : Yes
Format settings, ReFrames : 4 frames
Codec ID : V_MPEG4/ISO/AVC
Duration : 1h 38mn
Bit rate mode : Variable
Bit rate : 21.5 Mbps
Maximum bit rate : 37.0 Mbps
Width : 1 920 pixels
Height : 1 080 pixels
Display aspect ratio : 16:9
Frame rate mode : Constant
Frame rate : 23.976 fps
Color space : YUV
Chroma subsampling : 4:2:0
Bit depth : 8 bits
Scan type : Progressive
Bits/(Pixel*Frame) : 0.433
Stream size : 14.7 GiB (84%)
Title : GORENOISE
Language : English
Default : Yes
Forced : No
Audio #2
ID : 2
Format : DTS
Format/Info : Digital Theater Systems
Codec ID : A_DTS
Duration : 1h 38mn
Bit rate mode : Constant
Bit rate : 1 510 Kbps
Channel(s) : 6 channels
Channel positions : Front: L C R, Side: L R, LFE
Sampling rate : 48.0 KHz
Bit depth : 24 bits
Compression mode : Lossy
Stream size : 1.03 GiB (6%)
Title : Любительский (двухголосый закадровый) Электричка
Language : Russian
Default : Yes
Forced : No
Audio #3
ID : 3
Format : AC-3
Format/Info : Audio Coding 3
Mode extension : CM (complete main)
Format settings, Endianness : Big
Codec ID : A_AC3
Duration : 1h 38mn
Bit rate mode : Constant
Bit rate : 448 Kbps
Channel(s) : 6 channels
Channel positions : Front: L C R, Side: L R, LFE
Sampling rate : 48.0 KHz
Bit depth : 16 bits
Compression mode : Lossy
Stream size : 314 MiB (2%)
Title : Любительский (двухголосый закадровый) КэП
Language : Russian
Default : No
Forced : No
Audio #4
ID : 4
Format : DTS
Format/Info : Digital Theater Systems
Format profile : MA / Core
Codec ID : A_DTS
Duration : 1h 38mn
Bit rate mode : Variable
Bit rate : 1 561 Kbps / 1 510 Kbps
Channel(s) : 6 channels
Channel positions : Front: L C R, Side: L R, LFE
Sampling rate : 48.0 KHz
Bit depth : 24 bits
Compression mode : Lossless / Lossy
Title : Оригинал
Language : English
Default : No
Forced : No
Text #5
ID : 5
Format : UTF-8
Codec ID : S_TEXT/UTF8
Codec ID/Info : UTF-8 Plain Text
Title : Max_FlexO
Language : Russian
Default : No
Forced : No
Text #6
ID : 6
Format : UTF-8
Codec ID : S_TEXT/UTF8
Codec ID/Info : UTF-8 Plain Text
Title : Полные
Language : English
Default : No
Forced : No
Menu
00:00:00.000 : en:1
00:05:00.456 : en:2
00:10:00.090 : en:3
00:15:00.334 : en:4
00:20:00.223 : en:5
00:25:00.112 : en:6
00:30:00.935 : en:7
00:35:00.769 : en:8
00:40:00.348 : en:9
00:45:00.775 : en:10
00:50:00.534 : en:11
00:55:00.009 : en:12
01:00:00.088 : en:13
01:05:00.335 : en:14
01:10:00.869 : en:15
01:15:00.456 : en:16
01:20:00.159 : en:17
01:25:00.661 : en:18
01:30:00.509 : en:19
01:35:00.777 : en:20

Полноразмерные постеры

Other forum [Profile] [PM]

Dracula

Longevity: 7 years 5 months

Posts: 11216

Торрент-статистика

Post 17-Jan-2013 19:37 (after 22 hours)

Топик был перенесен из форума Зарубежное кино (HD Video) в форум Зарубежное кино


Delia
 
Display posts from previous:    
Reply to topic

The time now is: Today 03:40

All times are GMT + 3 Hours



You cannot post new topics in this forum
You cannot reply to topics in this forum
You cannot edit your posts in this forum
You cannot delete your posts in this forum
You cannot vote in polls in this forum
You cannot attach files in this forum
You cannot download files in this forum