Today is a free download without charge Download

Muse — Follow Me [2013, Alternative rock, HDTV 1080i]

Reply to topic
 
Author
Message

Omen ®

Longevity: 8 years 3 months

Posts: 181087

Торрент-статистика

Post 16-Jan-2013 13:12

[Quote]

Muse — Follow Me- Жанр: Alternative rock
Продолжительность: 00:03:48
Год выпуска: 2013
Качество: HDTV 1080i
Контейнер: TS
Видео кодек: H.264
Аудио кодек: AC3
Видео: H.264; 1920x1080; 7 052 Kbps ; 25.000 fps
Аудио: AC-3; 384 Kbps; 48.0 KHz; 6 ch

Отчёт MediaInfo

Complete name :Muse — Follow Me.tsFormat : MPEG-TSFile size : 214 MiBDuration : 3mn 48sOverall bit rate mode : VariableOverall bit rate : 7 827 Kbps
VideoID : 2020 (0x7E4)Menu ID : 202 (0xCA)Format : AVCFormat/Info : Advanced Video CodecFormat profile : [email protected] settings, CABAC : YesFormat settings, ReFrames : 4 framesCodec ID : 27Duration : 3mn 48sBit rate : 7 052 KbpsWidth : 1 920 pixelsHeight : 1 080 pixelsDisplay aspect ratio : 16:9Frame rate : 25.000 fpsColor space : YUVChroma subsampling : 4:2:0Bit depth : 8 bitsScan type : MBAFFBits/(Pixel*Frame) : 0.136Stream size : 192 MiB (90%)Color primaries : BT.709Transfer characteristics : BT.709Matrix coefficients : BT.709
AudioID : 2021 (0x7E5)Menu ID : 202 (0xCA)Format : AC-3Format/Info : Audio Coding 3Mode extension : CM (complete main)Format settings, Endianness : BigCodec ID : 6Duration : 3mn 48sBit rate mode : ConstantBit rate : 384 KbpsChannel(s) : 6 channelsChannel positions : Front: L C R, Side: L R, LFESampling rate : 48.0 KHzBit depth : 16 bitsCompression mode : LossyDelay relative to video : 8msStream size : 10.5 MiB (5%)Language : French

Скриншоты

Other forum [Profile] [PM]
Display posts from previous:    
Reply to topic

The time now is: Today 23:35

All times are GMT + 3 Hours



You cannot post new topics in this forum
You cannot reply to topics in this forum
You cannot edit your posts in this forum
You cannot delete your posts in this forum
You cannot vote in polls in this forum
You cannot attach files in this forum
You cannot download files in this forum