Today is a free download without charge Download

Without Limits - Беркут [2012, Rock, HDTV 1080i]

Reply to topic
 
Author
Message

Omen ®

Longevity: 8 years 4 months

Posts: 181087

Торрент-статистика

Post 16-Jan-2013 05:04

[Quote]

Without Limits - Беркут
Жанр: Rock
Продолжительность: 00:03:22
Год выпуска: 2012
Описание: Группа «Without Limits» прекрасно известна украинским меломанам благодаря таким популярным хитам как «Не знаю как», «Underground», «Расскажи».
С первых аккордов собственных композиций музыканты заряжают позитивом и энергетикой, с первых выступлений - покорили своей харизматичностью, приобретая все больше и больше сторонников.
Для болельщиков украинского хоккея уже давно нет тайны в том, что «Without Limits» стали своеобразным музыкальным талисманом известного клуба «Беркут», одноименная же композиция является официальным гимном спортивной команды. Именно на нее и сняли видео, которое менее чем за сутки уже имеет более тысячи просмотров.
Режиссер работы - Олег Борщевский, ранее знимавший для группы клип на композицию «Расскажи». Для сторонников коллектива «Without Limits» действительно долгожданная премьера, ведь раньше песню услышать реально было только во время выступлений группы или на хоккейных матчах в «Дворце Спорта». В случае видео к «Беркута» можно просмотреть на музыкальных телеканалах, но песня вскоре появится на радиоволнах.
Качество: HDTV 1080i
Контейнер: MP4
Видео кодек: H.264
Аудио кодек: AAC
Видео: MPEG4 Video (H264) 1920x1080 25fps
Аудио: AAC 44100Hz stereo 191kbps

Отчёт MediaInfo / BDInfo

GeneralComplete name : D:\Content\VIDEOMUSIC\Without Limits - Berkut.mp4Format : MPEG-4Format profile : Base Media / Version 2Codec ID : mp42File size : 88.5 MiBDuration : 3mn 21sOverall bit rate mode : VariableOverall bit rate : 3 683 KbpsEncoded date : UTC 2012-12-12 13:18:51Tagged date : UTC 2012-12-12 13:18:51gsst : 0gstd : 201826gssd : B2E1CF747HH1358279856564368gshh : r4---sn-2apm-f5fr.c.youtube.com
VideoID : 1Format : AVCFormat/Info : Advanced Video CodecFormat profile : [email protected] settings, CABAC : YesFormat settings, ReFrames : 1 frameCodec ID : avc1Codec ID/Info : Advanced Video CodingDuration : 3mn 21sBit rate : 3 488 KbpsMaximum bit rate : 7 976 KbpsWidth : 1 920 pixelsHeight : 1 080 pixelsDisplay aspect ratio : 16:9Frame rate mode : ConstantFrame rate : 25.000 fpsColor space : YUVChroma subsampling : 4:2:0Bit depth : 8 bitsScan type : ProgressiveBits/(Pixel*Frame) : 0.067Stream size : 83.9 MiB (95%)Tagged date : UTC 2012-12-12 13:18:51
AudioID : 2Format : AACFormat/Info : Advanced Audio CodecFormat profile : LCCodec ID : 40Duration : 3mn 21sBit rate mode : VariableBit rate : 192 KbpsMaximum bit rate : 202 KbpsChannel(s) : 2 channelsChannel positions : Front: L RSampling rate : 44.1 KHzCompression mode : LossyStream size : 4.62 MiB (5%)Title : IsoMedia File Produced by Google, 5-11-2011Encoded date : UTC 2012-12-12 13:18:51Tagged date : UTC 2012-12-12 13:18:51

Скриншоты

 
 
 
Other forum [Profile] [PM]
Display posts from previous:    
Reply to topic

The time now is: Today 15:52

All times are GMT + 3 Hours



You cannot post new topics in this forum
You cannot reply to topics in this forum
You cannot edit your posts in this forum
You cannot delete your posts in this forum
You cannot vote in polls in this forum
You cannot attach files in this forum
You cannot download files in this forum