Сегодня идет свободное скачивание без начисления Download

Радуга (1943) DVDRip

Ответить на тему
 
Автор
Сообщение

Omen ®

Стаж: 5 лет 10 месяцев

Сообщений: 184329

Торрент-статистика

Пост 16-Янв-2013 04:44

[Цитировать]

-Радуга (1943) DVDRip- Русское название: Радуга
Производство: Киевская киностудия художественных фильмов
Год выпуска: 1943
Жанр: Военный, Драма
Описание фильма:
Экранизация одноименной повести Ванды Василевской. Этот фильм примечателен тем уже, что вышел в годы войны и снят в труднейших условиях. Он о доблести и героизме партизан, о простой украинской женщине Олене Костюк, вставшей в ряды народных мстителей. "Судьба Олены Костюк, - говорила исполнительница главной роли Наталия Ужвий, - которая без единого стона перенесла нечеловеческие муки, пытки, смерть новорожденного ребенка, убитого фашистским офицером, и не выдала своих товарищей, никого не оставила равнодушным. Она воспринималась как символ, как обобщенное изображение народной силы, великого мужества и страстной материнской любви..."Радуга" задевала за живое, звучала как гневная речь прокурора...Она вызывала ненависть к врагу, желание бороться до конца".
Режиссер: Марк Донской, Рафаил Перельштейн
Актеры: Наталья Ужвий, Нина Алисова, Елена Тяпкина, Валентина Ивашёва, Антон Дунайский, Анна Лисянская, Ганс Клеринг, Николай Братерский, Владимир Чобур, Витя Виноградов, Алик Летичевский, Эмма Малая, Вова Пономарев, Юлия Ткаченко, Василий Дашенко, Дмитрий Капка
Продолжительность: 01:25:59

Видеокодек: DivX 5
Битрейт видео: ~1958 Кбит/сек
Размер кадра: 720x544
Качество видео: DVDRip
Аудиокодек: MP3, 2 ch
Битрейт аудио: 128 Кбит/сек

Дополнительные сведения:

Лидер проката (1944, 2 место) - 23.6 млн. зрителей.

MediaInfo:

Общее
Полное имя : G:\1112\Радуга (1943)\Радуга 1943 DVDRip.avi
Формат : AVI
Формат/Информация : Audio Video Interleave
Размер файла : 1,26 Гбайт
Продолжительность : 1 ч. 25 м.
Общий поток : 2096 Кбит/сек
Программа кодирования : FairUse Wizard - http://fairusewizard.com
Библиотека кодирования : VirtualDub build 35390/release
Видео
Идентификатор : 0
Формат : MPEG-4 Visual
Параметр BVOP формата : 1
Параметр QPel формата : Нет
Параметр GMC формата : Без точки перехода
Параметр матрицы формата : Default (H.263)
Идентификатор кодека : DX50
Идентификатор кодека/Подсказка : DivX 5
Продолжительность : 1 ч. 25 м.
Битрейт : 1958 Кбит/сек
Ширина : 720 пикселей
Высота : 544 пикселя
Соотношение сторон : 4:3
Частота кадров : 25,000 кадров/сек
Цветовое пространство : YUV
Субдискретизация насыщенности : 4:2:0
Битовая глубина : 8 бит
Тип развёртки : Прогрессивная
Метод сжатия : С потерями
Бит/(Пиксели*Кадры) : 0.200
Размер потока : 1,18 Гбайт (93%)
Библиотека кодирования : DivX 1328m
Аудио
Идентификатор : 1
Формат : MPEG Audio
Версия формата : Version 1
Профиль формата : Layer 3
Режим : Joint stereo
Идентификатор кодека : 55
Идентификатор кодека/Подсказка : MP3
Продолжительность : 1 ч. 25 м.
Вид битрейта : Постоянный
Битрейт : 128 Кбит/сек
Каналы : 2 канала
Частота : 48,0 КГц
Метод сжатия : С потерями
Размер потока : 78,7 Мбайт (6%)
Выравнивание : Соединение по промежуткам
Продолжительность промежутка : 40 мс. (1,00 видеокадр)
Время предзагрузки промежутка : 504 мс.
Библиотека кодирования : LAME3.97
Настройки программы : -m j -V 4 -q 2 -lowpass 17 -b 128
Скриншоты:
         
         
Время раздачи: С 10 до 22:00
Вне форума [Профиль] [ЛС]
Показать сообщения:    
Ответить на тему

Текущее время: Сегодня 19:43

Часовой пояс: GMT + 3



Вы не можете начинать темы
Вы не можете отвечать на сообщения
Вы не можете редактировать свои сообщения
Вы не можете удалять свои сообщения
Вы не можете голосовать в опросах
Вы не можете прикреплять файлы к сообщениям
Вы не можете скачивать файлы