Today is a free download without charge Download

Русский дубль (16 серий из 16) (2010) 2хDVD9

Reply to topic
 
Author
Message

Omen ®

Longevity: 8 years 11 months

Posts: 181086

Торрент-статистика

Post 16-Jan-2013 03:00

[Quote]

-Русский дубль (16 серий из 16) (2010) 2хDVD9- Русское название: Русский дубль
Год выпуска: 2010
Производство: Россия, Кинокомпания "Триикс Медиагруп"
Жанр: Детектив
Язык: Оригинал (русский)
Субтитры: Отсутствуют-Дата выхода DVD релиза: 23 ноября 2010-Режиссер: Сергей Щербин
Актеры: Максим Дрозд, Андрей Зибров, Сергей Горобченко, Алексей Фокин, Алена Шайтарова, Ян Цапник, Олег Чернов, Николай Добрынин, Дмитрий Быковский-Ромашов, Сергей Кудрявцев, Анна Пескова, Дарья Чудакова, Полина Булычева, Сергей Куницкий, Елена Радевич, Анастасия Казанкова, Алексей Духнов, Татьяна Егорова (IV), Владимир Розыграев, Анатолий Кондюбов, Антон Чернов, Андрей Мокеев, Андрей Шимко, Сергей Синцов, Константин Клюквин, Юрий Агейкин, Марк Гаврилов, Артем Анчуков, Виктория Полторак, Валерий Малюшин, Михаил Сидаш, Андрей Пынзару, Александр Маслов, Владимир Шумков, Константин Фильченков, Ольга Медынич, Анна Орисик, Георгий Маришин
Описание фильма:
Два друга детства, выросшие в одном дворе и ходившие в одну школу организовали частное сыскное агентство. Андрей — в прошлом — инженер, работавший в «почтовом ящике», уволенный в период начала процесса конверсии. Отлично разбирается в технике, имеет аналитический склад ума, математик и практик одновременно. При этом в простых бытовых ситуациях оказывается беспомощным до комичности, ничего не понимает в бизнесе, представления о преступности — «книжные», взятые из прочитанных детективных романов. Максим — в прошлом — оперуполномоченный, ушедший из «Органов» из-за конфликтов с начальством — слишком уж Максим оказался принципиальным правдолюбом. Жесткий практик, хорошо ориентируется в мире городской преступности. В отличие от Андрея отлично ориентируется в реальной жизни. В каждой серии — история отдельного расследования — «частные» дела выводят наших героев на серьезные, крупные преступления.- -Продолжительность: 16 х ~ 00:48:00
Качество видео: DVD9
Видеокодек: MPEG-2
Битрейт видео: ~2549 Кбит/сек
Размер кадра: 720х[email protected]
Аудиокодек: AC3 2.0
Битрейт аудио: AC3, 2 ch, 192 Кбит/с - русский

Дополнительно

Отсутствует

Содержание сериала

Серия 1 - «Должник»
Первым делом частного сыскного агентство Андрея и Максима становится розыск человека — некоего Сергея Данилова. Его отчаянно желает найти первый клиент друзей — Болдин. Удается выяснить, что 10 лет назад исчезнувший Данилов подозревался в убийстве. Едва начав поиски, Андрей с Максимом натолкнулись на неожиданное препятствие: оперативник районного УВД Суровцев, старый враг Макса, предупредил, что не потерпит на своей земле «частников»…
Серия 2 - «Феня»
К друзьям за помощью обратился бывший заключенный Федот. Он рассказал, что накануне освобождения у него состоялась прощальная встреча с авторитетом по кличке Старик, который попросил передать все его сбережения по указанному адресу. Пообещав выполнить просьбу, Федот вышел на волю, и тут начались проблемы: после встречи с проституткой его обокрали. Среди украденного оказалась записка от Старика, в которой было указано и место нахождения денег, и адрес, куда надо было их отнести…
Серия 3 - «Слежка»
В агентстве появился новый клиент, который попросил проследить за неверной женой, посулив солидный гонорар. Но Максима насторожило два факта. Во-первых, почему заказчик предпочел остаться инкогнито, а во-вторых, срок, за который необходимо было выполнить заказ: на то, чтобы доказать факт измены некой Виктории Кремневой, у друзей ровно сутки!
Серия 4 - «Дело пожарника»
Ночью во дворе своего дома Андрей при странных обстоятельствах познакомился с Людой. Горела машина, и девушка восхищалась красотой огня. Утром погорелец Шаров пошел с заявлением в милицию, а следующей ночью вспыхнул другой автомобиль, потом — еще один. Милиция не справляется с уже имеющимися делами, а тут — серия. Суровцев лично пришел просить Максима помочь поймать поджигателя…
Серия 5 - «Воронье»
Пока Максим ходил за покупками, Андрей принял заказ у бизнесмена Свиридова. Получив аванс и выяснив некоторые детали, он отправился порадовать друга новым делом. Но Макс сразу понял, что их ждет серьезное расследование и выполнить заказ будет непросто. Суть в том, что у Свиридова из сейфа был похищен диск с информацией, способной «взорвать» город. Его необходимо найти и вернуть к вечеру следующего дня, иначе всем несдобровать…
Серия 6 - «Бой под прикрытием»
Суровцев вынужден снова обратиться к Максиму за помощью. Милиции известно, что в городе проходят подпольные бои. На ринг выходят боксеры довольно высокого класса, на них ставятся огромные деньги, а большинство сражений — договорные. Самое прискорбное, что всем этим «бизнесом» заправляют какие-то высокие чины. Две попытки Суровцева внедрить туда своего человека закончились ничем. Удастся ли Максиму, неплохо боксирующему, войти в бойцовскую бригаду и подобраться к организаторам незаконных боев?..
Серия 7 - «Последняя песня Зузлика»
В агентство пришел молодой мужчина, представился Александром Зузликом и сообщил, что видел в ресторане своего отца — Владимира Зузлика, пропавшего несколько лет назад. Андрей обрадовался небедному клиенту, взял с него аванс и пообещал разыскать папашу. Когда Зузлик-старший отыскался, Максим очень удивился: Владимиру было около сорока, и у него явно не могло быть 25-летнего сына…
Серия 8 - «Подкидыш»
Утро Максима и Тани началось рано: в полпятого утра раздался звонок в дверь. На пороге стояла корзина с младенцем. К малютке прилагалась записка, адресованная Максиму от матери ребенка с просьбой его воспитывать… Тяжелый разговор с женой — не единственное, что Максу придется пережить в этот день. Ни Андрей, ни Суровцев не поверили, что это чужой ребенок. Единственный выход — разыскать маму и настоящего отца малыша.
Серия 9 - «Удар сзади»
Андрей стал жертвой классической дорожной «подставы» и чуть было не лишился не только автомобиля, но и жизни. На выручку, естественно, пришел Максим. Если бы не он и не вовремя подоспевший Суровцев, дело могло кончится совсем плачевно…
Серия 10 - «Горький мед»
Пропала модель Ира Ольховская. Суровцеву становится известно, что ей накануне свадьбы с бизнесменом Синявиным кто-то угрожал. Человек, которого все знали как дядю девушки, рассказал, что она ему не племянница, а бывшая невестка — жена погибшего сына, который взял на себя ее вину и отсидел за нее 8 лет. Их дочь росла с дедом и никогда не видела матери. Неужели выросшая девочка решила отомстить матери-кукушке?
Серия 11 - «Шуба»
В агентство обратился антиквар Семен Сергеевич. Накануне у него похитили ценную картину, которую он должен был выставлять в Париже. Полотно, правда, оказалось застраховано на миллион долларов. Максима и Андрея сразу заинтересовал сын коллекционера, который задолжал за повреждение чужого автомобиля пятьдесят тысяч…
Серия 12 - «Кредит»
Предприимчивого прохвоста Яна посетила очередная «гениальная» идея. Он занял у серьезных людей большие деньги и записал в совладельцы бизнеса… Максима. Вскоре домой к Максу пожаловали кредиторы и крепко избили Тимофея, приняв его за хозяина. Ситуацию в очередной раз спас Суровцев, который ночью с отрядом ОМОНа ворвался в клуб, где все шло к кровопролитию…
Серия 13 - «Дом с привидением»
У пожилой женщины неожиданно умер брат, а в его квартиру вселились двое молодых людей. Максим и Андрей решили помочь старушке и разобраться, почему в последнее время таинственным образом один за другим умирают люди в возрасте, только что получившие ключи от новых квартир. Дошло до того, что местные старожилы начали судачить о каком-то привидении, которое является к старикам по ночам…
Серия 14 - «Подтверждение отцовства»
Андрей принял новый заказ — найти похищенного сына Ивана Акулова. Вскоре отцу позвонили и потребовали отписать похитителям значительную часть его бизнеса. Дальше события развивались стремительно: бывший любовник жены Акулова Чурилов оказался… отцом похищенного им мальчика. Иван же, узнав об этом, схватился за оружие…
Серия 15 - «Кино не для всех»
К Максиму пришла искать защиты Катя — дочь его бывшего преподавателя Гаршина. Она рассказала, что их семье угрожает недавно вышедший из тюрьмы Петров, который требует 2 миллиона долларов. В то же самое время в милицию поступает заявление об угоне машины ГИБДД, а вскоре становится известно, что из костюмерной театра исчезли два комплекта формы дорожных инспекторов…
Серия 16 - «Карусель»
Кто-то устроил в офисе Максима и Андрея погром, а в багажник машины подвинул… труп неизвестного мужчины. Теперь за сыщиками гоняется и милиция, и люди авторитета Мирона. А все из-за чемодана с кладом, когда-то давным-давно оставленного дядей погибшего — как выяснилось, сотрудника детективного агентства «Доберман».

MediaInfo

Общее
Полное имя : G:\/*spam*/\Russkij.dubl.(01-16.serii.iz.16).2010.2xDVD9\DVD-1\VIDEO_TS\VTS_01_0.IFO
Формат : DVD Video
Профиль формата : Program
Размер файла : 252 Кбайт
Продолжительность : 51 м.
Общий поток : 670 бит/сек
Видео
Идентификатор : 224 (0xE0)
Формат : MPEG Video
Версия формата : Version 2
Продолжительность : 51 м.
Вид битрейта : Переменный
Ширина : 720 пикс.
Высота : 576 пикс.
Соотношение сторон : 4:3
Частота кадров : 25,000 кадр/сек
Стандарт вещания : PAL
Метод сжатия : С потерями
Аудио
Идентификатор : 128 (0x80)
Формат : AC-3
Формат/Информация : Audio Coding 3
Продолжительность : 51 м.
Канал(ы) : 2 канала(ов)
Частота : 48,0 КГц
Метод сжатия : С потерями
Язык : English
Меню #1
Продолжительность : 51 м.
00:00:00.000 : Chapter 1
00:08:27.240 : Chapter 2
00:17:04.200 : Chapter 3
00:26:07.720 : Chapter 4
00:33:38.440 : Chapter 5
00:43:21.480 : Chapter 6
List (Audio) : 0
Меню #2
Продолжительность : 48 м.
00:00:00.000 : Chapter 1
00:08:13.000 : Chapter 2
00:16:11.080 : Chapter 3
00:24:11.240 : Chapter 4
00:33:01.160 : Chapter 5
00:40:51.240 : Chapter 6
List (Audio) : 0
Меню #3
Продолжительность : 48 м.
00:00:00.000 : Chapter 1
00:08:33.320 : Chapter 2
00:16:05.000 : Chapter 3
00:24:33.320 : Chapter 4
00:32:07.880 : Chapter 5
00:40:17.480 : Chapter 6
List (Audio) : 0
Меню #4
Продолжительность : 46 м.
00:00:00.000 : Chapter 1
00:07:57.480 : Chapter 2
00:16:34.440 : Chapter 3
00:24:43.080 : Chapter 4
00:31:24.840 : Chapter 5
00:39:23.400 : Chapter 6
List (Audio) : 0
Меню #5
Продолжительность : 49 м.
00:00:00.000 : Chapter 1
00:08:22.120 : Chapter 2
00:16:37.480 : Chapter 3
00:26:17.800 : Chapter 4
00:36:41.800 : Chapter 5
00:43:59.560 : Chapter 6
List (Audio) : 0
Меню #6
Продолжительность : 47 м.
00:00:00.000 : Chapter 1
00:07:58.120 : Chapter 2
00:15:50.440 : Chapter 3
00:24:25.160 : Chapter 4
00:32:05.960 : Chapter 5
00:40:25.160 : Chapter 6
List (Audio) : 0
Меню #7
Продолжительность : 47 м.
00:00:00.000 : Chapter 1
00:08:16.520 : Chapter 2
00:15:51.560 : Chapter 3
00:24:19.400 : Chapter 4
00:31:32.840 : Chapter 5
00:39:35.240 : Chapter 6
List (Audio) : 0
Меню #8
Продолжительность : 48 м.
00:00:00.000 : Chapter 1
00:08:47.240 : Chapter 2
00:16:57.960 : Chapter 3
00:24:49.320 : Chapter 4
00:32:25.800 : Chapter 5
00:40:07.560 : Chapter 6
List (Audio) : 0
Общее
Полное имя : G:\/*spam*/\Russkij.dubl.(01-16.serii.iz.16).2010.2xDVD9\DVD-1\VIDEO_TS\VTS_01_0.BUP
Формат : DVD Video
Профиль формата : Program
Размер файла : 252 Кбайт
Продолжительность : 51 м.
Общий поток : 670 бит/сек
Видео
Идентификатор : 224 (0xE0)
Формат : MPEG Video
Версия формата : Version 2
Продолжительность : 51 м.
Вид битрейта : Переменный
Ширина : 720 пикс.
Высота : 576 пикс.
Соотношение сторон : 4:3
Частота кадров : 25,000 кадр/сек
Стандарт вещания : PAL
Метод сжатия : С потерями
Аудио
Идентификатор : 128 (0x80)
Формат : AC-3
Формат/Информация : Audio Coding 3
Продолжительность : 51 м.
Канал(ы) : 2 канала(ов)
Частота : 48,0 КГц
Метод сжатия : С потерями
Язык : English
Меню #1
Продолжительность : 51 м.
00:00:00.000 : Chapter 1
00:08:27.240 : Chapter 2
00:17:04.200 : Chapter 3
00:26:07.720 : Chapter 4
00:33:38.440 : Chapter 5
00:43:21.480 : Chapter 6
List (Audio) : 0
Меню #2
Продолжительность : 48 м.
00:00:00.000 : Chapter 1
00:08:13.000 : Chapter 2
00:16:11.080 : Chapter 3
00:24:11.240 : Chapter 4
00:33:01.160 : Chapter 5
00:40:51.240 : Chapter 6
List (Audio) : 0
Меню #3
Продолжительность : 48 м.
00:00:00.000 : Chapter 1
00:08:33.320 : Chapter 2
00:16:05.000 : Chapter 3
00:24:33.320 : Chapter 4
00:32:07.880 : Chapter 5
00:40:17.480 : Chapter 6
List (Audio) : 0
Меню #4
Продолжительность : 46 м.
00:00:00.000 : Chapter 1
00:07:57.480 : Chapter 2
00:16:34.440 : Chapter 3
00:24:43.080 : Chapter 4
00:31:24.840 : Chapter 5
00:39:23.400 : Chapter 6
List (Audio) : 0
Меню #5
Продолжительность : 49 м.
00:00:00.000 : Chapter 1
00:08:22.120 : Chapter 2
00:16:37.480 : Chapter 3
00:26:17.800 : Chapter 4
00:36:41.800 : Chapter 5
00:43:59.560 : Chapter 6
List (Audio) : 0
Меню #6
Продолжительность : 47 м.
00:00:00.000 : Chapter 1
00:07:58.120 : Chapter 2
00:15:50.440 : Chapter 3
00:24:25.160 : Chapter 4
00:32:05.960 : Chapter 5
00:40:25.160 : Chapter 6
List (Audio) : 0
Меню #7
Продолжительность : 47 м.
00:00:00.000 : Chapter 1
00:08:16.520 : Chapter 2
00:15:51.560 : Chapter 3
00:24:19.400 : Chapter 4
00:31:32.840 : Chapter 5
00:39:35.240 : Chapter 6
List (Audio) : 0
Меню #8
Продолжительность : 48 м.
00:00:00.000 : Chapter 1
00:08:47.240 : Chapter 2
00:16:57.960 : Chapter 3
00:24:49.320 : Chapter 4
00:32:25.800 : Chapter 5
00:40:07.560 : Chapter 6
List (Audio) : 0
Общее
Полное имя : G:\/*spam*/\Russkij.dubl.(01-16.serii.iz.16).2010.2xDVD9\DVD-1\VIDEO_TS\VIDEO_TS.VOB
Формат : MPEG-PS
Размер файла : 48,0 Кбайт
Продолжительность : 40 мс.
Общий поток : 9830 Кбит/сек
Видео
Идентификатор : 224 (0xE0)
Формат : MPEG Video
Версия формата : Version 2
Профиль формата : [email protected]
Параметр BVOP формата : Нет
Параметр матрицы формата : По умолчанию
Продолжительность : 40 мс.
Вид битрейта : Переменный
Битрейт : 9000 Кбит/сек
Ширина : 720 пикс.
Высота : 576 пикс.
Соотношение сторон : 4:3
Частота кадров : 25,000 кадр/сек
Стандарт вещания : PAL
Цветовое пространство : YUV
Подвыборка цветности : 4:2:0
Битовая глубина : 8 бит
Тип развёртки : Прогрессивная
Порядок развёртки : Верхнее поле первое
Метод сжатия : С потерями
Бит/(Пиксели*Кадры) : 0.868
Размер потока : 43,9 Кбайт (92%)
Меню
Общее
Полное имя : G:\/*spam*/\Russkij.dubl.(01-16.serii.iz.16).2010.2xDVD9\DVD-1\VIDEO_TS\VTS_02_0.IFO
Формат : DVD Video
Профиль формата : Program
Размер файла : 14,0 Кбайт
Продолжительность : 22 с.
Общий поток : 5194 бит/сек
Видео
Идентификатор : 224 (0xE0)
Формат : MPEG Video
Версия формата : Version 2
Продолжительность : 22 с.
Вид битрейта : Переменный
Ширина : 720 пикс.
Высота : 576 пикс.
Соотношение сторон : 4:3
Частота кадров : 25,000 кадр/сек
Стандарт вещания : PAL
Метод сжатия : С потерями
Аудио
Идентификатор : 128 (0x80)
Формат : AC-3
Формат/Информация : Audio Coding 3
Продолжительность : 22 с.
Канал(ы) : 2 канала(ов)
Частота : 48,0 КГц
Метод сжатия : С потерями
Язык : English
Меню
Продолжительность : 22 с.
00:00:00.000 : Chapter 1
List (Audio) : 0
Общее
Полное имя : G:\/*spam*/\Russkij.dubl.(01-16.serii.iz.16).2010.2xDVD9\DVD-1\VIDEO_TS\VTS_02_0.BUP
Формат : DVD Video
Профиль формата : Program
Размер файла : 14,0 Кбайт
Продолжительность : 22 с.
Общий поток : 5194 бит/сек
Видео
Идентификатор : 224 (0xE0)
Формат : MPEG Video
Версия формата : Version 2
Продолжительность : 22 с.
Вид битрейта : Переменный
Ширина : 720 пикс.
Высота : 576 пикс.
Соотношение сторон : 4:3
Частота кадров : 25,000 кадр/сек
Стандарт вещания : PAL
Метод сжатия : С потерями
Аудио
Идентификатор : 128 (0x80)
Формат : AC-3
Формат/Информация : Audio Coding 3
Продолжительность : 22 с.
Канал(ы) : 2 канала(ов)
Частота : 48,0 КГц
Метод сжатия : С потерями
Язык : English
Меню
Продолжительность : 22 с.
00:00:00.000 : Chapter 1
List (Audio) : 0
Общее
Полное имя : G:\/*spam*/\Russkij.dubl.(01-16.serii.iz.16).2010.2xDVD9\DVD-1\VIDEO_TS\VIDEO_TS.IFO
Формат : DVD Video
Профиль формата : Menu
Размер файла : 14,0 Кбайт
Видео
Идентификатор : 224 (0xE0)
Формат : MPEG Video
Версия формата : Version 2
Вид битрейта : Переменный
Ширина : 720 пикс.
Высота : 576 пикс.
Соотношение сторон : 4:3
Частота кадров : 25,000 кадр/сек
Стандарт вещания : PAL
Метод сжатия : С потерями
Текст
Формат : RLE
Формат/Информация : Run-length encoding
Битовая глубина : 2 бит
Общее
Полное имя : G:\/*spam*/\Russkij.dubl.(01-16.serii.iz.16).2010.2xDVD9\DVD-1\VIDEO_TS\VTS_03_0.BUP
Формат : DVD Video
Профиль формата : Program
Размер файла : 14,0 Кбайт
Продолжительность : 16 с.
Общий поток : 6976 бит/сек
Видео
Идентификатор : 224 (0xE0)
Формат : MPEG Video
Версия формата : Version 2
Продолжительность : 16 с.
Вид битрейта : Переменный
Ширина : 720 пикс.
Высота : 576 пикс.
Соотношение сторон : 16:9
Частота кадров : 25,000 кадр/сек
Стандарт вещания : PAL
Метод сжатия : С потерями
Аудио
Идентификатор : 128 (0x80)
Формат : AC-3
Формат/Информация : Audio Coding 3
Продолжительность : 16 с.
Канал(ы) : 2 канала(ов)
Частота : 48,0 КГц
Метод сжатия : С потерями
Язык : English
Меню
Продолжительность : 16 с.
00:00:00.000 : Chapter 1
List (Audio) : 0
Общее
Полное имя : G:\/*spam*/\Russkij.dubl.(01-16.serii.iz.16).2010.2xDVD9\DVD-1\VIDEO_TS\VTS_03_0.IFO
Формат : DVD Video
Профиль формата : Program
Размер файла : 14,0 Кбайт
Продолжительность : 16 с.
Общий поток : 6976 бит/сек
Видео
Идентификатор : 224 (0xE0)
Формат : MPEG Video
Версия формата : Version 2
Продолжительность : 16 с.
Вид битрейта : Переменный
Ширина : 720 пикс.
Высота : 576 пикс.
Соотношение сторон : 16:9
Частота кадров : 25,000 кадр/сек
Стандарт вещания : PAL
Метод сжатия : С потерями
Аудио
Идентификатор : 128 (0x80)
Формат : AC-3
Формат/Информация : Audio Coding 3
Продолжительность : 16 с.
Канал(ы) : 2 канала(ов)
Частота : 48,0 КГц
Метод сжатия : С потерями
Язык : English
Меню
Продолжительность : 16 с.
00:00:00.000 : Chapter 1
List (Audio) : 0
Общее
Полное имя : G:\/*spam*/\Russkij.dubl.(01-16.serii.iz.16).2010.2xDVD9\DVD-1\VIDEO_TS\VIDEO_TS.BUP
Формат : DVD Video
Профиль формата : Menu
Размер файла : 14,0 Кбайт
Видео
Идентификатор : 224 (0xE0)
Формат : MPEG Video
Версия формата : Version 2
Вид битрейта : Переменный
Ширина : 720 пикс.
Высота : 576 пикс.
Соотношение сторон : 4:3
Частота кадров : 25,000 кадр/сек
Стандарт вещания : PAL
Метод сжатия : С потерями
Текст
Формат : RLE
Формат/Информация : Run-length encoding
Битовая глубина : 2 бит
Общее
Полное имя : G:\/*spam*/\Russkij.dubl.(01-16.serii.iz.16).2010.2xDVD9\DVD-1\VIDEO_TS\VTS_03_1.VOB
Формат : MPEG-PS
Размер файла : 4,83 Мбайт
Продолжительность : 16 с.
Общий поток : 2466 Кбит/сек
Видео
Идентификатор : 224 (0xE0)
Формат : MPEG Video
Версия формата : Version 2
Профиль формата : [email protected]
Параметр BVOP формата : Да
Параметр матрицы формата : По умолчанию
Продолжительность : 16 с.
Вид битрейта : Переменный
Битрейт : 2225 Кбит/сек
Номинальный битрейт : 9200 Кбит/сек
Ширина : 720 пикс.
Высота : 576 пикс.
Соотношение сторон : 16:9
Частота кадров : 25,000 кадр/сек
Стандарт вещания : PAL
Цветовое пространство : YUV
Подвыборка цветности : 4:2:0
Битовая глубина : 8 бит
Тип развёртки : Прогрессивная
Метод сжатия : С потерями
Бит/(Пиксели*Кадры) : 0.215
Размер потока : 4,36 Мбайт (90%)
Аудио
Идентификатор : 189 (0xBD)-128 (0x80)
Формат : AC-3
Формат/Информация : Audio Coding 3
Расширение режима : CM (complete main)
Режим смешивания : DVD-Video
Продолжительность : 16 с.
Вид битрейта : Постоянный
Битрейт : 192 Кбит/сек
Канал(ы) : 2 канала(ов)
Расположение каналов : Front: L R
Частота : 48,0 КГц
Битовая глубина : 16 бит
Метод сжатия : С потерями
Размер потока : 383 Кбайт (8%)
Меню
Общее
Полное имя : G:\/*spam*/\Russkij.dubl.(01-16.serii.iz.16).2010.2xDVD9\DVD-1\VIDEO_TS\VTS_02_1.VOB
Формат : MPEG-PS
Размер файла : 20,2 Мбайт
Продолжительность : 22 с.
Общий поток : 7675 Кбит/сек
Видео
Идентификатор : 224 (0xE0)
Формат : MPEG Video
Версия формата : Version 2
Профиль формата : [email protected]
Параметр BVOP формата : Да
Параметр матрицы формата : По умолчанию
Параметры GOP формата : M=3, N=12
Продолжительность : 22 с.
Вид битрейта : Переменный
Битрейт : 7330 Кбит/сек
Номинальный битрейт : 9000 Кбит/сек
Ширина : 720 пикс.
Высота : 576 пикс.
Соотношение сторон : 4:3
Частота кадров : 25,000 кадр/сек
Стандарт вещания : PAL
Цветовое пространство : YUV
Подвыборка цветности : 4:2:0
Битовая глубина : 8 бит
Тип развёртки : Чересстрочная
Порядок развёртки : Нижнее поле первое
Метод сжатия : С потерями
Бит/(Пиксели*Кадры) : 0.707
Размер потока : 19,2 Мбайт (95%)
Аудио
Идентификатор : 189 (0xBD)-128 (0x80)
Формат : AC-3
Формат/Информация : Audio Coding 3
Расширение режима : CM (complete main)
Режим смешивания : DVD-Video
Продолжительность : 22 с.
Вид битрейта : Постоянный
Битрейт : 192 Кбит/сек
Канал(ы) : 2 канала(ов)
Расположение каналов : Front: L R
Частота : 48,0 КГц
Битовая глубина : 16 бит
Метод сжатия : С потерями
Задержка видео : -80 мс.
Размер потока : 518 Кбайт (3%)
Меню
Общее
Полное имя : G:\/*spam*/\Russkij.dubl.(01-16.serii.iz.16).2010.2xDVD9\DVD-1\VIDEO_TS\VTS_01_0.VOB
Формат : MPEG-PS
Размер файла : 10,7 Мбайт
Видео
Идентификатор : 224 (0xE0)
Формат : MPEG Video
Версия формата : Version 2
Профиль формата : [email protected]
Параметр BVOP формата : Да
Параметр матрицы формата : По умолчанию
Параметры GOP формата : M=3, N=15
Вид битрейта : Переменный
Битрейт : 4550 Кбит/сек
Ширина : 720 пикс.
Высота : 576 пикс.
Соотношение сторон : 4:3
Частота кадров : 25,000 кадр/сек
Стандарт вещания : PAL
Цветовое пространство : YUV
Подвыборка цветности : 4:2:0
Битовая глубина : 8 бит
Тип развёртки : Чересстрочная
Порядок развёртки : Нижнее поле первое
Метод сжатия : С потерями
Бит/(Пиксели*Кадры) : 0.439
Аудио
Идентификатор : 189 (0xBD)-128 (0x80)
Формат : AC-3
Формат/Информация : Audio Coding 3
Расширение режима : CM (complete main)
Режим смешивания : DVD-Video
Вид битрейта : Постоянный
Битрейт : 192 Кбит/сек
Канал(ы) : 2 канала(ов)
Расположение каналов : Front: L R
Частота : 48,0 КГц
Битовая глубина : 16 бит
Метод сжатия : С потерями
Текст
Идентификатор : 189 (0xBD)-32 (0x20)
Формат : RLE
Формат/Информация : Run-length encoding
Режим смешивания : DVD-Video
Меню
Общее
Полное имя : G:\/*spam*/\Russkij.dubl.(01-16.serii.iz.16).2010.2xDVD9\DVD-1\VIDEO_TS\VTS_01_8.VOB
Формат : MPEG-PS
Размер файла : 222 Мбайт
Продолжительность : 11 м.
Общий поток : 2699 Кбит/сек
Видео
Идентификатор : 224 (0xE0)
Формат : MPEG Video
Версия формата : Version 2
Профиль формата : [email protected]
Параметр BVOP формата : Да
Параметр матрицы формата : По умолчанию
Параметры GOP формата : M=4, N=12
Продолжительность : 11 м.
Вид битрейта : Переменный
Битрейт : 2549 Кбит/сек
Ширина : 480 пикс.
Высота : 576 пикс.
Соотношение сторон : 0,833
Частота кадров : 25,000 кадр/сек
Цветовое пространство : YUV
Подвыборка цветности : 4:2:0
Битовая глубина : 8 бит
Тип развёртки : Прогрессивная
Метод сжатия : С потерями
Бит/(Пиксели*Кадры) : 0.369
Размер потока : 209 Мбайт (94%)
Аудио
Идентификатор : 189 (0xBD)-128 (0x80)
Формат : AC-3
Формат/Информация : Audio Coding 3
Расширение режима : CM (complete main)
Режим смешивания : DVD-Video
Продолжительность : 11 м.
Вид битрейта : Постоянный
Битрейт : 96,0 Кбит/сек
Канал(ы) : 2 канала(ов)
Расположение каналов : Front: L R
Частота : 48,0 КГц
Битовая глубина : 16 бит
Метод сжатия : С потерями
Задержка видео : -608 мс.
Размер потока : 7,88 Мбайт (4%)
Меню
Общее
Полное имя : G:\/*spam*/\Russkij.dubl.(01-16.serii.iz.16).2010.2xDVD9\DVD-1\VIDEO_TS\VTS_01_1.VOB
Формат : MPEG-PS
Размер файла : 1024 Мбайт
Продолжительность : 2 м. 45 с.
Общий поток : 52,0 Мбит/сек
Видео
Идентификатор : 224 (0xE0)
Формат : MPEG Video
Версия формата : Version 2
Профиль формата : [email protected]
Параметр BVOP формата : Да
Параметр матрицы формата : По умолчанию
Параметры GOP формата : M=4, N=12
Продолжительность : 2 м. 45 с.
Вид битрейта : Переменный
Битрейт : 50,9 Мбит/сек
Ширина : 480 пикс.
Высота : 576 пикс.
Соотношение сторон : 0,833
Частота кадров : 25,000 кадр/сек
Цветовое пространство : YUV
Подвыборка цветности : 4:2:0
Битовая глубина : 8 бит
Тип развёртки : Прогрессивная
Метод сжатия : С потерями
Бит/(Пиксели*Кадры) : 7.361
Размер потока : 1002 Мбайт (98%)
Аудио
Идентификатор : 189 (0xBD)-128 (0x80)
Формат : AC-3
Формат/Информация : Audio Coding 3
Расширение режима : CM (complete main)
Режим смешивания : DVD-Video
Продолжительность : 2 м. 45 с.
Вид битрейта : Постоянный
Битрейт : 96,0 Кбит/сек
Канал(ы) : 2 канала(ов)
Расположение каналов : Front: L R
Частота : 48,0 КГц
Битовая глубина : 16 бит
Метод сжатия : С потерями
Размер потока : 1,89 Мбайт (0%)
Меню
Общее
Полное имя : G:\/*spam*/\Russkij.dubl.(01-16.serii.iz.16).2010.2xDVD9\DVD-1\VIDEO_TS\VTS_01_5.VOB
Формат : MPEG-PS
Размер файла : 1024 Мбайт
Продолжительность : 4 м. 0 с.
Общий поток : 35,7 Мбит/сек
Видео
Идентификатор : 224 (0xE0)
Формат : MPEG Video
Версия формата : Version 2
Профиль формата : [email protected]
Параметр BVOP формата : Да
Параметр матрицы формата : По умолчанию
Параметры GOP формата : M=4, N=12
Продолжительность : 4 м. 0 с.
Вид битрейта : Переменный
Битрейт : 34,9 Мбит/сек
Ширина : 480 пикс.
Высота : 576 пикс.
Соотношение сторон : 0,833
Частота кадров : 25,000 кадр/сек
Цветовое пространство : YUV
Подвыборка цветности : 4:2:0
Битовая глубина : 8 бит
Тип развёртки : Прогрессивная
Метод сжатия : С потерями
Бит/(Пиксели*Кадры) : 5.046
Размер потока : 1000 Мбайт (98%)
Аудио
Идентификатор : 189 (0xBD)-128 (0x80)
Формат : AC-3
Формат/Информация : Audio Coding 3
Расширение режима : CM (complete main)
Режим смешивания : DVD-Video
Продолжительность : 4 м. 0 с.
Вид битрейта : Постоянный
Битрейт : 96,0 Кбит/сек
Канал(ы) : 2 канала(ов)
Расположение каналов : Front: L R
Частота : 48,0 КГц
Битовая глубина : 16 бит
Метод сжатия : С потерями
Задержка видео : -544 мс.
Размер потока : 2,75 Мбайт (0%)
Меню
Общее
Полное имя : G:\/*spam*/\Russkij.dubl.(01-16.serii.iz.16).2010.2xDVD9\DVD-1\VIDEO_TS\VTS_01_7.VOB
Формат : MPEG-PS
Размер файла : 1024 Мбайт
Продолжительность : 6 м. 19 с.
Общий поток : 22,6 Мбит/сек
Видео
Идентификатор : 224 (0xE0)
Формат : MPEG Video
Версия формата : Version 2
Профиль формата : [email protected]
Параметр BVOP формата : Да
Параметр матрицы формата : По умолчанию
Параметры GOP формата : M=4, N=12
Продолжительность : 6 м. 18 с.
Вид битрейта : Переменный
Битрейт : 22,1 Мбит/сек
Ширина : 480 пикс.
Высота : 576 пикс.
Соотношение сторон : 0,833
Частота кадров : 25,000 кадр/сек
Цветовое пространство : YUV
Подвыборка цветности : 4:2:0
Битовая глубина : 8 бит
Тип развёртки : Прогрессивная
Метод сжатия : С потерями
Бит/(Пиксели*Кадры) : 3.197
Размер потока : 998 Мбайт (97%)
Аудио
Идентификатор : 189 (0xBD)-128 (0x80)
Формат : AC-3
Формат/Информация : Audio Coding 3
Расширение режима : CM (complete main)
Режим смешивания : DVD-Video
Продолжительность : 6 м. 19 с.
Вид битрейта : Постоянный
Битрейт : 96,0 Кбит/сек
Канал(ы) : 2 канала(ов)
Расположение каналов : Front: L R
Частота : 48,0 КГц
Битовая глубина : 16 бит
Метод сжатия : С потерями
Задержка видео : -608 мс.
Размер потока : 4,34 Мбайт (0%)
Меню
Общее
Полное имя : G:\/*spam*/\Russkij.dubl.(01-16.serii.iz.16).2010.2xDVD9\DVD-1\VIDEO_TS\VTS_01_6.VOB
Формат : MPEG-PS
Размер файла : 1024 Мбайт
Продолжительность : 5 м. 43 с.
Общий поток : 25,0 Мбит/сек
Видео
Идентификатор : 224 (0xE0)
Формат : MPEG Video
Версия формата : Version 2
Профиль формата : [email protected]
Параметр BVOP формата : Да
Параметр матрицы формата : По умолчанию
Параметры GOP формата : M=4, N=12
Продолжительность : 5 м. 42 с.
Вид битрейта : Переменный
Битрейт : 24,4 Мбит/сек
Ширина : 480 пикс.
Высота : 576 пикс.
Соотношение сторон : 0,833
Частота кадров : 25,000 кадр/сек
Цветовое пространство : YUV
Подвыборка цветности : 4:2:0
Битовая глубина : 8 бит
Тип развёртки : Прогрессивная
Метод сжатия : С потерями
Бит/(Пиксели*Кадры) : 3.537
Размер потока : 999 Мбайт (98%)
Аудио
Идентификатор : 189 (0xBD)-128 (0x80)
Формат : AC-3
Формат/Информация : Audio Coding 3
Расширение режима : CM (complete main)
Режим смешивания : DVD-Video
Продолжительность : 5 м. 43 с.
Вид битрейта : Постоянный
Битрейт : 96,0 Кбит/сек
Канал(ы) : 2 канала(ов)
Расположение каналов : Front: L R
Частота : 48,0 КГц
Битовая глубина : 16 бит
Метод сжатия : С потерями
Задержка видео : -448 мс.
Размер потока : 3,93 Мбайт (0%)
Меню
Общее
Полное имя : G:\/*spam*/\Russkij.dubl.(01-16.serii.iz.16).2010.2xDVD9\DVD-1\VIDEO_TS\VTS_01_2.VOB
Формат : MPEG-PS
Размер файла : 1024 Мбайт
Продолжительность : 5 м. 49 с.
Общий поток : 24,6 Мбит/сек
Видео
Идентификатор : 224 (0xE0)
Формат : MPEG Video
Версия формата : Version 2
Профиль формата : [email protected]
Параметр BVOP формата : Да
Параметр матрицы формата : По умолчанию
Параметры GOP формата : M=4, N=12
Продолжительность : 5 м. 49 с.
Вид битрейта : Переменный
Битрейт : 24,0 Мбит/сек
Ширина : 480 пикс.
Высота : 576 пикс.
Соотношение сторон : 0,833
Частота кадров : 25,000 кадр/сек
Цветовое пространство : YUV
Подвыборка цветности : 4:2:0
Битовая глубина : 8 бит
Тип развёртки : Прогрессивная
Метод сжатия : С потерями
Бит/(Пиксели*Кадры) : 3.475
Размер потока : 1000 Мбайт (98%)
Аудио
Идентификатор : 189 (0xBD)-128 (0x80)
Формат : AC-3
Формат/Информация : Audio Coding 3
Расширение режима : CM (complete main)
Режим смешивания : DVD-Video
Продолжительность : 5 м. 49 с.
Вид битрейта : Постоянный
Битрейт : 96,0 Кбит/сек
Канал(ы) : 2 канала(ов)
Расположение каналов : Front: L R
Частота : 48,0 КГц
Битовая глубина : 16 бит
Метод сжатия : С потерями
Задержка видео : -128 мс.
Размер потока : 3,99 Мбайт (0%)
Меню
Общее
Полное имя : G:\/*spam*/\Russkij.dubl.(01-16.serii.iz.16).2010.2xDVD9\DVD-1\VIDEO_TS\VTS_01_3.VOB
Формат : MPEG-PS
Размер файла : 1024 Мбайт
Продолжительность : 5 м. 33 с.
Общий поток : 25,7 Мбит/сек
Видео
Идентификатор : 224 (0xE0)
Формат : MPEG Video
Версия формата : Version 2
Профиль формата : [email protected]
Параметр BVOP формата : Да
Параметр матрицы формата : По умолчанию
Параметры GOP формата : M=4, N=12
Продолжительность : 5 м. 33 с.
Вид битрейта : Переменный
Битрейт : 25,1 Мбит/сек
Ширина : 480 пикс.
Высота : 576 пикс.
Соотношение сторон : 0,833
Частота кадров : 25,000 кадр/сек
Цветовое пространство : YUV
Подвыборка цветности : 4:2:0
Битовая глубина : 8 бит
Тип развёртки : Прогрессивная
Метод сжатия : С потерями
Бит/(Пиксели*Кадры) : 3.633
Размер потока : 999 Мбайт (98%)
Аудио
Идентификатор : 189 (0xBD)-128 (0x80)
Формат : AC-3
Формат/Информация : Audio Coding 3
Расширение режима : CM (complete main)
Режим смешивания : DVD-Video
Продолжительность : 5 м. 33 с.
Вид битрейта : Постоянный
Битрейт : 96,0 Кбит/сек
Канал(ы) : 2 канала(ов)
Расположение каналов : Front: L R
Частота : 48,0 КГц
Битовая глубина : 16 бит
Метод сжатия : С потерями
Задержка видео : -608 мс.
Размер потока : 3,82 Мбайт (0%)
Меню
Общее
Полное имя : G:\/*spam*/\Russkij.dubl.(01-16.serii.iz.16).2010.2xDVD9\DVD-1\VIDEO_TS\VTS_01_4.VOB
Формат : MPEG-PS
Размер файла : 1024 Мбайт
Продолжительность : 6 м. 26 с.
Общий поток : 22,2 Мбит/сек
Видео
Идентификатор : 224 (0xE0)
Формат : MPEG Video
Версия формата : Version 2
Профиль формата : [email protected]
Параметр BVOP формата : Да
Параметр матрицы формата : По умолчанию
Параметры GOP формата : M=4, N=12
Продолжительность : 6 м. 26 с.
Вид битрейта : Переменный
Битрейт : 21,7 Мбит/сек
Ширина : 480 пикс.
Высота : 576 пикс.
Соотношение сторон : 0,833
Частота кадров : 25,000 кадр/сек
Цветовое пространство : YUV
Подвыборка цветности : 4:2:0
Битовая глубина : 8 бит
Тип развёртки : Прогрессивная
Метод сжатия : С потерями
Бит/(Пиксели*Кадры) : 3.139
Размер потока : 999 Мбайт (98%)
Аудио
Идентификатор : 189 (0xBD)-128 (0x80)
Формат : AC-3
Формат/Информация : Audio Coding 3
Расширение режима : CM (complete main)
Режим смешивания : DVD-Video
Продолжительность : 6 м. 26 с.
Вид битрейта : Постоянный
Битрейт : 96,0 Кбит/сек
Канал(ы) : 2 канала(ов)
Расположение каналов : Front: L R
Частота : 48,0 КГц
Битовая глубина : 16 бит
Метод сжатия : С потерями
Задержка видео : -384 мс.
Размер потока : 4,42 Мбайт (0%)
Меню

DVDInfo

Disk 1

Title: HITACHI
Size: 7.25 Gb ( 7 604 184 KBytes ) - DVD-9
Enabled regions: 1, 2, 3, 4, 5, 6, 7, 8
VTS_01 :
Play Length: 00:51:17+00:48:15+00:48:10+00:46:56+00:49:50+00:47:24+00:47:03+00:48:06
Video: PAL 4:3 (720x576) VBR
Audio:
English (Dolby AC3, 2 ch)
VTS_02 :
Play Length: 00:00:22
Video: PAL 4:3 (720x576) VBR
Audio:
English (Dolby AC3, 2 ch)
VTS_03 :
Play Length: 00:00:16
Video: PAL 16:9 (720x576) VBR, Auto Pan&Scan
Audio:
English (Dolby AC3, 2 ch)
Menu Video:
PAL 4:3 (720x576) VBR
Menu Subtitles:
Not specified
Menu English Language Unit :
Root Menu

Disk 2

Title: HITACHI
Size: 7.34 Gb ( 7 696 242 KBytes ) - DVD-9
Enabled regions: 1, 2, 3, 4, 5, 6, 7, 8
VTS_01 :
Play Length: 00:48:38+00:48:13+00:47:00+00:48:47+00:47:29+00:49:04+00:47:51+00:48:45
Video: PAL 4:3 (720x576) VBR
Audio:
English (Dolby AC3, 2 ch)
VTS_02 :
Play Length: 00:00:22
Video: PAL 4:3 (720x576) VBR
Audio:
English (Dolby AC3, 2 ch)
VTS_03 :
Play Length: 00:00:16
Video: PAL 16:9 (720x576) VBR, Auto Pan&Scan
Audio:
English (Dolby AC3, 2 ch)
Menu Video:
PAL 4:3 (720x576) VBR
Menu Subtitles:
Not specified
Menu English Language Unit :
Root Menu
Subpicture Menu
Audio Menu

Меню DVD

       
Скриншоты:
         
         
Все релизы Русский дубль на NNM-CLUBВремя раздачи: 24/7 (до 10 скачавших)
Other forum [Profile] [PM]
Display posts from previous:    
Reply to topic

The time now is: Today 14:14

All times are GMT + 3 Hours



You cannot post new topics in this forum
You cannot reply to topics in this forum
You cannot edit your posts in this forum
You cannot delete your posts in this forum
You cannot vote in polls in this forum
You cannot attach files in this forum
You cannot download files in this forum