Today is a free download without charge Download

Казаки - разбойники / Серии: 4 из 4 (Константин Статский) [2008, мистический триллер, 2 х DVD5]

Reply to topic
 
Author
Message

Omen ®

Longevity: 8 years 11 months

Posts: 181086

Торрент-статистика

Post 16-Jan-2013 01:00

[Quote]

Казаки - разбойники- -Год выпуска: 2008
Производство: ООО "Кинокомпания Телесто"
Дистрибьютор: «CP Digital»
Жанр: мистмческий триллер
Продолжительность: 4 x ~ 00:43:00
Субтитры: украинские-Режиссёр: Константин Статский-В ролях:
Александр Бухаров, Андрей Смоляков, Сергей Белов, Никита Зверев,
Евгений Киндинов, Инна Гомес, Елена Николаева, Леонид Бичевин,
Наталья Рудова, Илья Хвостиков, Анна Хилькевич, Владимир Яглыч-Описание:
На темном загородном шоссе ребята на автомобиле сбивают пешехода, который таинственным образом исчезает с места аварии. Машина принадлежит известному в городе человеку - успешному бизнесмену по прозвищу Казак, а за рулем был его племянник. Происшествие может получить громкую огласку и сорвать выгодную сделку Казака с зарубежными инвесторами, которые наверняка откажутся от сотрудничества, если узнают, что их новый партнер замешан в убийстве. Чтобы избежать неприятностей, бизнесмен оправляет своего 17-летнего племянника и его друзей в далекий бобровый заказник, не предполагая, что их там ждет.-Доп. информация:
При помощи DVD Remake Pro для удобства просмотра удалены заставки, предупреждения, реклама
Исходник поделен на 2 DVD5 по 2 серии на каждом диске
Навигация диска сохранена, нерабочие кнопки заблокированы
Общее сжатие - 0 %.-

Софт

DVD Remake Pro
-Дополнительно:
* Каталог
* Релизы DVD-Возраст: 16+--Качество: 2 х DVD5
Формат: DVD-Video

Видео: PAL 4:3 (720x576) VBR
Аудио: Russian (Dolby AC3, 6 ch) 448 kbps
Субтитры: Ukrainian
-

MediaInfo

General
Complete name : F:\Раздачи\Казаки - разбойники (1-4 серии из 4) 2#DVD5\2\VIDEO_TS\VTS_06_1.VOB
Format : MPEG-PS
File size : 1 024 MiB
Duration : 23mn 38s
Overall bit rate : 6 056 Kbps
Video
ID : 224 (0xE0)
Format : MPEG Video
Format version : Version 2
Format profile : [email protected]
Format settings, BVOP : Yes
Format settings, Matrix : Default
Duration : 23mn 38s
Bit rate mode : Variable
Bit rate : 5 487 Kbps
Nominal bit rate : 8 000 Kbps
Width : 720 pixels
Height : 576 pixels
Display aspect ratio : 4:3
Frame rate : 25.000 fps
Standard : PAL
Color space : YUV
Chroma subsampling : 4:2:0
Bit depth : 8 bits
Scan type : Progressive
Bits/(Pixel*Frame) : 0.529
Stream size : 928 MiB (91%)
Audio
ID : 128 (0x80)
Format : AC-3
Format/Info : Audio Coding 3
Mode extension : CM (complete main)
Duration : 23mn 38s
Bit rate mode : Constant
Bit rate : 448 Kbps
Channel(s) : 6 channels
Channel positions : Front: L C R, Side: L R, LFE
Sampling rate : 48.0 KHz
Bit depth : 16 bits
Stream size : 75.7 MiB (7%)
Text
ID : 32 (0x20)
Format : RLE
Format/Info : Run-length encoding
Video delay : 560ms
Menu

-

DVDInfo DVD1

Size: 3.98 Gb ( 4 175 622 KBytes ) - DVD-5
Enabled regions: 1, 2, 3, 4, 5, 6, 7, 8
VTS_01 :
Play Length:
Video: PAL 4:3 (720x576) VBR
Audio:
Not specified (Dolby AC3, 2 ch)
VTS_02 :
Play Length:
Video: PAL 4:3 (720x576) VBR
Audio:
Not specified (Dolby AC3, 2 ch)
VTS_03 :
Play Length:
Video: PAL 4:3 (720x576) VBR
Audio:
Russian (Dolby AC3, 2 ch)
VTS_04 :
Play Length: 00:42:50
Video: PAL 4:3 (720x576) VBR
Audio:
Russian (Dolby AC3, 6 ch)
Subtitles:
Ukrainian
VTS_05 :
Play Length: 00:43:21
Video: PAL 4:3 (720x576) VBR
Audio:
Russian (Dolby AC3, 6 ch)
Subtitles:
Ukrainian
VTS_06 :
Play Length: 00:00:01
Video: PAL 4:3 (720x576) VBR
Audio:
Russian (Dolby AC3, 6 ch)
Subtitles:
Ukrainian
VTS_07 :
Play Length: 00:00:01
Video: PAL 4:3 (720x576) VBR
Audio:
Russian (Dolby AC3, 6 ch)
Subtitles:
Ukrainian
VTS_08 :
Play Length: 00:03:18
Video: PAL 4:3 (720x576) VBR
Audio:
English (Dolby AC3, 2 ch)
VTS_09 :
Play Length: 00:00:29
Video: PAL 4:3 (720x576) VBR
Audio:
English (Dolby AC3, 2 ch)
VTS_10 :
Play Length: 00:01:01
Video: PAL 4:3 (720x576) VBR
Audio:
Not specified (Dolby AC3, 2 ch)
Menu Video:
NTSC 4:3 (720x480) VBR
Auto Pan&Scan, Auto Letterboxed
Menu English Language Unit :
Root Menu
Chapter (PTT) Menu
Audio #1: AC3, 3/2 (L,C,R,SL,SR)+LFE ch, 448 kbps, Delay 0 mSec

DVDInfo DVD2

Size: 4.08 Gb ( 4 281 354 KBytes ) - DVD-5
Enabled regions: 1, 2, 3, 4, 5, 6, 7, 8
VTS_01 :
Play Length:
Video: PAL 4:3 (720x576) VBR
Audio:
Not specified (Dolby AC3, 2 ch)
VTS_02 :
Play Length:
Video: PAL 4:3 (720x576) VBR
Audio:
Not specified (Dolby AC3, 2 ch)
VTS_03 :
Play Length:
Video: PAL 4:3 (720x576) VBR
Audio:
Russian (Dolby AC3, 2 ch)
VTS_04 :
Play Length: 00:00:01
Video: PAL 4:3 (720x576) VBR
Audio:
Russian (Dolby AC3, 6 ch)
Subtitles:
Ukrainian
VTS_05 :
Play Length: 00:00:01
Video: PAL 4:3 (720x576) VBR
Audio:
Russian (Dolby AC3, 6 ch)
Subtitles:
Ukrainian
VTS_06 :
Play Length: 00:44:35
Video: PAL 4:3 (720x576) VBR
Audio:
Russian (Dolby AC3, 6 ch)
Subtitles:
Ukrainian
VTS_07 :
Play Length: 00:43:59
Video: PAL 4:3 (720x576) VBR
Audio:
Russian (Dolby AC3, 6 ch)
Subtitles:
Ukrainian
VTS_08 :
Play Length: 00:03:18
Video: PAL 4:3 (720x576) VBR
Audio:
English (Dolby AC3, 2 ch)
VTS_09 :
Play Length: 00:00:29
Video: PAL 4:3 (720x576) VBR
Audio:
English (Dolby AC3, 2 ch)
VTS_10 :
Play Length: 00:01:01
Video: PAL 4:3 (720x576) VBR
Audio:
Not specified (Dolby AC3, 2 ch)
Menu Video:
NTSC 4:3 (720x480) VBR
Auto Pan&Scan, Auto Letterboxed
Menu English Language Unit :
Root Menu
Chapter (PTT) Menu
Audio #1: AC3, 3/2 (L,C,R,SL,SR)+LFE ch, 448 kbps, Delay 0 mSec

-

Скриншоты меню


Скриншоты сериала DVD1



Скриншоты сериала DVD2




-

Ковры


-
-
Other forum [Profile] [PM]
Display posts from previous:    
Reply to topic

The time now is: Today 15:26

All times are GMT + 3 Hours



You cannot post new topics in this forum
You cannot reply to topics in this forum
You cannot edit your posts in this forum
You cannot delete your posts in this forum
You cannot vote in polls in this forum
You cannot attach files in this forum
You cannot download files in this forum