Today is a free download without charge Download

В финале Джон умрёт / John Dies at the End (Дон Коскарелли / Don Coscarelli) [2012, США, ужасы, фэнтези, комедия, WEB-DL 1080p] DVO + VO + original (eng) + sub (rus, eng)

Reply to topic
 
Author
Message

Omen ®

Longevity: 8 years 5 months

Posts: 181087

Торрент-статистика

Post 16-Jan-2013 01:00

[Quote]

В финале Джон умрёт / John Dies at the End-Год выпуска: 2012
Страна: США
Жанр: ужасы, фэнтези, комедия
Продолжительность: 01:39:32
Перевод №1: Любительский (двухголосый) [den904 и DeadSno]
Перевод №2: Любительский (одноголосый) [acolith]
Субтитры: русские (notabenoid), английские
Оригинальная аудиодорожка: английский
Режиссер: Дон Коскарелли / Don Coscarelli
В ролях: Чейз Уильямсон, Роб Майес, Пол Джаматти, Клэнси Браун, Глинн Тёрмен, Даг Джонс, Дэниэл Робак, Фаббианн Терез, Джонни Уэстон, Джимми Вонг
Описание: Новый препарат, наркотик, наводнил улицы, его действие — просто сумашествие, но есть один страшный побочный эффект — после употребления не все возвращаются в реальный мир людьми… Два друга, Джон и Дэвид, оказываются ввязаны в историю с адским препаратом и вынуждены противостоять надвигающемуся ужасу так спешащему выбраться в наш мир через эту дрянь.

SAMPLE

Качество: WEB-DL 1080p(WEBiOS)
Формат: MKV
Видео кодек: H.264
Аудио кодек: AC3
Видео: 1912 x 1072; 23.976 fps; 4 966 Kbps
Аудио [den904 и DeadSno]: Русский,AC-3 at 384 Кбит/сек,6 каналов, 48,0 КГц
Аудио [acolith]: Русский, AC3 2.0 192 Kbps 48,0 КГц
Аудио Оригинал: English, AC3 5.1 384 Kbps 48,0 КГц
Субтитры: notabenoid (SRT)

MediaINFO

Общее
Уникальный идентификатор : 178326984509970654856035057774617837688 (0x86288726D05BCDD2B27DDED1FFD64078)
Полное имя : В финале Джон умрет - John Dies at the End (2012) WEB-DL 1080p.mkv
Формат : Matroska
Версия формата : Version 4 / Version 2
Размер файла : 4,20 Гбайт
Продолжительность : 1 ч. 39 м.
Общий поток : 6039 Кбит/сек
Название фильма : UnionGang.tv
Дата кодирования : UTC 2010-02-22 21:41:31
Программа кодирования : mkvmerge v5.9.0 ('On The Loose') built on Dec 9 2012 15:37:01
Библиотека кодирования : libebml v1.3.0 + libmatroska v1.4.0
Видео
Идентификатор : 1
Формат : AVC
Формат/Информация : Advanced Video Codec
Профиль формата : [email protected]
Параметр CABAC формата : Да
Параметр ReFrames формата : 4 кадра
Идентификатор кодека : V_MPEG4/ISO/AVC
Продолжительность : 1 ч. 39 м.
Битрейт : 4959 Кбит/сек
Ширина : 1912 пикселей
Высота : 1072 пикселя
Соотношение сторон : 16:9
Режим частоты кадров : Постоянный
Частота кадров : 23,976 кадра/сек
Цветовое пространство : YUV
Субдискретизация насыщенности : 4:2:0
Битовая глубина : 8 бит
Тип развёртки : Прогрессивная
Бит/(Пиксели*Кадры) : 0.101
Размер потока : 3,45 Гбайт (82%)
Заголовок : John.Dies.In.The.End.2012.1080p.WEB-DL.H264-WEBiOS
Язык : English
Default : Да
Forced : Нет
Основные цвета : BT.709
Характеристики трансфера : BT.709
Коэффициенты матрицы : BT.709
Аудио #1
Идентификатор : 2
Формат : AC-3
Формат/Информация : Audio Coding 3
Расширение режима : CM (complete main)
Параметр Endianness формата : Big
Идентификатор кодека : A_AC3
Продолжительность : 1 ч. 39 м.
Вид битрейта : Постоянный
Битрейт : 384 Кбит/сек
Каналы : 6 каналов
Расположение каналов : Front: L C R, Side: L R, LFE
Частота : 48,0 КГц
Битовая глубина : 16 бит
Метод сжатия : С потерями
Размер потока : 273 Мбайт (6%)
Заголовок : den904 и DeadSno (AC3, 384 Kb/s (6 ch))
Язык : Russian
Default : Да
Forced : Да
Аудио #2
Идентификатор : 3
Формат : AC-3
Формат/Информация : Audio Coding 3
Расширение режима : CM (complete main)
Параметр Endianness формата : Big
Идентификатор кодека : A_AC3
Продолжительность : 1 ч. 39 м.
Вид битрейта : Постоянный
Битрейт : 192 Кбит/сек
Каналы : 2 канала
Расположение каналов : Front: L R
Частота : 48,0 КГц
Битовая глубина : 16 бит
Метод сжатия : С потерями
Размер потока : 137 Мбайт (3%)
Заголовок : acolith AC3 2.0 192 kbps
Язык : Russian
Default : Нет
Forced : Нет
Аудио #3
Идентификатор : 4
Формат : AC-3
Формат/Информация : Audio Coding 3
Расширение режима : CM (complete main)
Параметр Endianness формата : Big
Идентификатор кодека : A_AC3
Продолжительность : 1 ч. 39 м.
Вид битрейта : Постоянный
Битрейт : 384 Кбит/сек
Каналы : 6 каналов
Расположение каналов : Front: L C R, Side: L R, LFE
Частота : 48,0 КГц
Битовая глубина : 16 бит
Метод сжатия : С потерями
Размер потока : 273 Мбайт (6%)
Заголовок : Original AC3 5.1 384 kbps
Язык : English
Default : Нет
Forced : Нет
Текст #1
Идентификатор : 5
Формат : UTF-8
Идентификатор кодека : S_TEXT/UTF8
Идентификатор кодека/Информация : UTF-8 Plain Text
Заголовок : Engl subs
Язык : English
Default : Нет
Forced : Нет
Текст #2
Идентификатор : 6
Формат : UTF-8
Идентификатор кодека : S_TEXT/UTF8
Идентификатор кодека/Информация : UTF-8 Plain Text
Заголовок : http://notabenoid.com/book/36091
Язык : Russian
Default : Да
Forced : Нет
Меню
00:00:00.000 : en:Chapter 1
00:02:09.000 : en:Chapter 2
00:12:10.000 : en:Chapter 3
00:21:54.000 : en:Chapter 4
00:31:23.000 : en:Chapter 5
00:41:55.000 : en:Chapter 6
00:50:16.000 : en:Chapter 7
01:00:40.000 : en:Chapter 8
01:12:35.000 : en:Chapter 9
01:17:51.000 : en:Chapter 10
01:26:24.000 : en:Chapter 11
01:33:19.000 : en:Chapter 12
Other forum [Profile] [PM]
Display posts from previous:    
Reply to topic

The time now is: Today 19:08

All times are GMT + 3 Hours



You cannot post new topics in this forum
You cannot reply to topics in this forum
You cannot edit your posts in this forum
You cannot delete your posts in this forum
You cannot vote in polls in this forum
You cannot attach files in this forum
You cannot download files in this forum