Today is a free download without charge Download

Брюс Всемогущий / Bruce Almighty (Том Шэдьяк / Tom Shadyac) [2003 г., США, Фэнтези, комедия, драма, BDRip 1080p] Dub + MVO + DVO + AVO + Original + Subs (Rus, Eng)

Reply to topic
 
Author
Message

Omen ®

Longevity: 8 years 5 months

Posts: 181087

Торрент-статистика

Post 16-Jan-2013 01:00

[Quote]

--Брюс Всемогущий / Bruce Almighty«The guy next door just became the man upstairs.»- -Год выпуска: 2003
Страна: США
Жанр: Фэнтези, комедия, драма
Продолжительность: 01:41:02
Перевод №1: Профессиональный (дублированный)
Перевод №2: Профессиональный (многоголосый закадровый, СТС)
Перевод №3: Профессиональный (двухголосый закадровый)
Перевод №4: Авторский (одноголосый закадровый, Е.Рудой)
Субтитры: Русские, Английские-Режиссер: Том Шэдьяк / Tom Shadyac
Сценарий: Стив Корен / Steve Koren, Марк О’Кифи / Mark O'Keefe, Стив Одекерк / Steve Oedekerk
Продюсер: Том Шэдьяк / Tom Shadyac, Джим Керри / Jim Carrey, Стив Одекерк / Steve Oedekerk, Марк О’Кифи / Mark O'Keefe и др.
Оператор: Дин Семлер / Dean Semler
Композитор: Джон Дебни / John Debney
В ролях: Джим Керри / Jim Carrey (Bruce Nolan), Морган Фриман / Morgan Freeman (God), Дженнифер Энистон / Jennifer Aniston (Grace Connelly), Филип Бейкер Холл / Philip Baker Hall (Jack Baylor), Кэтрин Белл / Catherine Bell (Susan Ortega), Лиза Энн Уолтер / Lisa Ann Walter (Debbie), Стив Карелл / Steve Carell (Evan Baxter), Нора Данн / Nora Dunn (Ally Loman), Эдди Джемисон / Eddie Jemison (Bobby), Пол Сэттерфилд / Paul Satterfield (Dallas Coleman), Марк Кили / Mark Kiely (Fred Donohue), Сэлли Кёркленд / Sally Kirkland (Anita)-Описание: Брюс Нолан - популярный ведущий теленовостей в Буффало. Он - пессимист, и его ничего не интересует в этой жизни, даже девушка Грейс, которая любит его, несмотря на всю его вредность.
Его репортажи интересуют всех, кроме его самого. Мечта Брюса - быть ведущим, тем более местечко вот-вот должно освободиться. Но однажды Брюса настигает неудача, и его увольняют с работы. В конец разочарованный Брюс гневается на Бога, а тот... отвечает ему! Всемогущий предлагает Брюсу сменить его на неделю и посмотреть, сможет ли он сделать мир хоть чуточку лучше...
-
Качество: Blu-ray Rip 1080p
Формат: MKV
Видео: MPEG-4 AVC (H264), 1920x1080, 23.976 fps, High Profile 4.1, ~15500 kbps avg, bit/(pixel*frame) 0.311
Аудио №1: Russian: 48 kHz, DTS, 3/2 (L,C,R,l,r) + LFE ch, ~755.00 kbps avg Дубляж
Аудио №2: Russian: 48 kHz, AC3, 2.0 (L,R) ch, ~192.00 kbps avg многоголосый закадровый (СТС)
Аудио №3: Russian: 48 kHz, AC3, 3/2 (L,C,R,l,r) + LFE ch, ~384.00 kbps avg двухголосый закадровый
Аудио №4: Russian: 48 kHz, AC3, 3/2 (L,C,R,l,r) + LFE ch, ~384.00 kbps avg одноголосый закадровый (Е.Рудой)
Аудио №5: English: 48 kHz, DTS, 3/2 (L,C,R,l,r) + LFE ch, ~1510.00 kbps avg Original
Субтитры : Russian, English, English SDH (Softsub SRT)
Навигация по главам: есть-

MediaInfo

G:\Bruce Almighty [Брюс всемогущий] (2003) 1920x1080 BDRip RusEngSubsChpt.mkv
General
Unique ID : 233048203107987288101802405745767349403 (0xAF5373876C1F553CBCF17D1333A5FC9B)
Complete name : G:\Bruce Almighty [Брюс всемогущий] (2003) 1920x1080 BDRip RusEngSubsChpt.mkv
Format : Matroska
Format version : Version 4 / Version 2
File size : 13.5 GiB
Duration : 1h 41mn
Overall bit rate : 19.1 Mbps
Encoded date : UTC 2010-02-22 21:41:31
Writing application : mkvmerge v5.9.0 ('On The Loose') built on Dec 9 2012 15:37:01
Writing library : libebml v1.3.0 + libmatroska v1.4.0
Video #1
ID : 1
Format : AVC
Format/Info : Advanced Video Codec
Format profile : [email protected]
Format settings, CABAC : Yes
Format settings, ReFrames : 4 frames
Codec ID : V_MPEG4/ISO/AVC
Duration : 1h 41mn
Bit rate : 15.5 Mbps
Width : 1 920 pixels
Height : 1 080 pixels
Display aspect ratio : 16:9
Frame rate mode : Constant
Frame rate : 23.976 fps
Color space : YUV
Chroma subsampling : 4:2:0
Bit depth : 8 bits
Scan type : Progressive
Bits/(Pixel*Frame) : 0.311
Stream size : 10.9 GiB (81%)
Writing library : x264 core 129 r2230+696+36 4446aa2 tMod+MixAQ [[email protected] X86_64]
Encoding settings : cabac=1 / ref=4 / deblock=1:-3:-3 / analyse=0x3:0x133 / me=umh / subme=11 / psy=1 / fade_compensate=0.00 / psy_rd=1.30:0.20 / mixed_ref=1 / me_range=32 / chroma_me=1 / trellis=2 / 8x8dct=1 / cqm=0 / deadzone=21,11 / fast_pskip=0 / chroma_qp_offset=-3 / threads=12 / lookahead_threads=2 / sliced_threads=0 / nr=0 / decimate=1 / interlaced=0 / bluray_compat=0 / constrained_intra=0 / fgo=0 / bframes=10 / b_pyramid=2 / b_adapt=2 / b_bias=0 / direct=3 / weightb=1 / open_gop=0 / weightp=2 / keyint=240 / keyint_min=23 / scenecut=40 / intra_refresh=0 / rc=crf / mbtree=0 / crf=18.0000 / qcomp=0.60 / qpmin=0 / qpmax=69 / qpstep=4 / ip_ratio=1.20 / pb_ratio=1.15 / aq=3 / aq-strength=0.80 / aq-sensitivity=10.00 / aq-ifactor=1.00 / aq-pfactor=1.00 / aq-bfactor=1.00 / aq2=0
Language : English
Default : Yes
Forced : No
Color primaries : BT.709
Transfer characteristics : BT.709
Matrix coefficients : BT.709
Audio #2
ID : 2
Format : DTS
Format/Info : Digital Theater Systems
Mode : 16
Format settings, Endianness : Big
Codec ID : A_DTS
Duration : 1h 41mn
Bit rate mode : Constant
Bit rate : 755 Kbps
Channel(s) : 6 channels
Channel positions : Front: L C R, Side: L R, LFE
Sampling rate : 48.0 KHz
Bit depth : 24 bits
Compression mode : Lossy
Stream size : 546 MiB (4%)
Title : Dub DTS 6ch 755kbps
Language : Russian
Default : Yes
Forced : No
Audio #3
ID : 3
Format : AC-3
Format/Info : Audio Coding 3
Mode extension : CM (complete main)
Format settings, Endianness : Big
Codec ID : A_AC3
Duration : 1h 41mn
Bit rate mode : Constant
Bit rate : 192 Kbps
Channel(s) : 2 channels
Channel positions : Front: L R
Sampling rate : 48.0 KHz
Bit depth : 16 bits
Compression mode : Lossy
Stream size : 139 MiB (1%)
Title : MVO AC3 2ch 192kbps (СТС)
Language : Russian
Default : No
Forced : No
Audio #4
ID : 4
Format : AC-3
Format/Info : Audio Coding 3
Mode extension : CM (complete main)
Format settings, Endianness : Big
Codec ID : A_AC3
Duration : 1h 41mn
Bit rate mode : Constant
Bit rate : 384 Kbps
Channel(s) : 6 channels
Channel positions : Front: L C R, Side: L R, LFE
Sampling rate : 48.0 KHz
Bit depth : 16 bits
Compression mode : Lossy
Stream size : 278 MiB (2%)
Title : DVO AC3 6ch 384kbps
Language : Russian
Default : No
Forced : No
Audio #5
ID : 5
Format : AC-3
Format/Info : Audio Coding 3
Mode extension : CM (complete main)
Format settings, Endianness : Big
Codec ID : A_AC3
Duration : 1h 41mn
Bit rate mode : Constant
Bit rate : 384 Kbps
Channel(s) : 6 channels
Channel positions : Front: L C R, Side: L R, LFE
Sampling rate : 48.0 KHz
Bit depth : 16 bits
Compression mode : Lossy
Stream size : 278 MiB (2%)
Title : AVO AC3 6ch 384kbps (Е.Рудой)
Language : Russian
Default : No
Forced : No
Audio #6
ID : 6
Format : DTS
Format/Info : Digital Theater Systems
Mode : 16
Format settings, Endianness : Big
Codec ID : A_DTS
Duration : 1h 41mn
Bit rate mode : Constant
Bit rate : 1 509 Kbps
Channel(s) : 6 channels
Channel positions : Front: L C R, Side: L R, LFE
Sampling rate : 48.0 KHz
Bit depth : 16 bits
Compression mode : Lossy
Stream size : 1.07 GiB (8%)
Title : Original DTS 6ch 1510kbps
Language : English
Default : No
Forced : No
Text #7
ID : 7
Format : UTF-8
Codec ID : S_TEXT/UTF8
Codec ID/Info : UTF-8 Plain Text
Language : Russian
Default : No
Forced : No
Text #8
ID : 8
Format : UTF-8
Codec ID : S_TEXT/UTF8
Codec ID/Info : UTF-8 Plain Text
Language : English
Default : No
Forced : No
Text #9
ID : 9
Format : UTF-8
Codec ID : S_TEXT/UTF8
Codec ID/Info : UTF-8 Plain Text
Title : SDH
Language : English
Default : No
Forced : No
Menu
00:00:00.000 : en:1
00:10:00.000 : en:2
00:20:00.000 : en:3
00:30:00.000 : en:4
00:40:00.000 : en:5
00:50:00.000 : en:6
01:00:00.000 : en:7
01:10:00.000 : en:8
01:20:00.000 : en:9
01:30:00.000 : en:10

x264 log

x264 [info]: frame I:1242 Avg QP:16.64 size:224080 PSNR Mean Y:48.34 U:51.87 V:54.09 Avg:49.33 Global:49.00
x264 [info]: frame P:29171 Avg QP:16.97 size:121981 PSNR Mean Y:47.05 U:50.18 V:52.50 Avg:47.91 Global:47.54
x264 [info]: frame B:114934 Avg QP:18.33 size: 71134 PSNR Mean Y:46.44 U:49.32 V:51.80 Avg:47.30 Global:46.99
x264 [info]: consecutive B-frames: 1.5% 1.7% 5.3% 15.5% 15.4% 50.0% 8.8% 0.8% 0.5% 0.2% 0.1%
x264 [info]: mb I I16..4: 14.6% 65.1% 20.4%
x264 [info]: mb P I16..4: 2.7% 29.0% 2.3% P16..4: 25.2% 30.0% 8.7% 1.7% 0.1% skip: 0.4%
x264 [info]: mb B I16..4: 1.3% 6.4% 0.7% B16..8: 39.4% 21.3% 3.4% direct:18.3% skip: 9.3% L0:39.2% L1:33.9% BI:26.9%
x264 [info]: 8x8 transform intra:80.1% inter:50.3%
x264 [info]: direct mvs spatial:100.0% temporal:0.0%
x264 [info]: coded y,uvDC,uvAC intra: 88.4% 88.2% 67.3% inter: 54.7% 61.7% 23.5%
x264 [info]: i16 v,h,dc,p: 12% 10% 46% 32%
x264 [info]: i8 v,h,dc,ddl,ddr,vr,hd,vl,hu: 12% 10% 15% 8% 10% 10% 11% 11% 13%
x264 [info]: i4 v,h,dc,ddl,ddr,vr,hd,vl,hu: 15% 9% 27% 6% 9% 9% 9% 7% 10%
x264 [info]: i8c dc,h,v,p: 52% 23% 15% 11%
x264 [info]: Weighted P-Frames: Y:97.0% UV:2.9%
x264 [info]: ref P L0: 47.1% 8.8% 30.0% 13.1% 1.0% 0.1%
x264 [info]: ref B L0: 86.1% 11.3% 2.6%
x264 [info]: ref B L1: 93.5% 6.5%
x264 [info]: SSIM Mean Y:0.9862517 (18.617db)
x264 [info]: PSNR Mean Y:46.576 U:49.518 V:51.958 Avg:47.437 Global:47.110 kb/s:15852.11
x264 [info]: encoded 145347 frames, 4.122 fps, 15852.12 kb/s, 11456 MB
x264 [info]: ended at Sun Jan 06 05:47:53 2013
x264 [info]: encoding duration 9:47:41
Other forum [Profile] [PM]
Display posts from previous:    
Reply to topic

The time now is: Today 01:48

All times are GMT + 3 Hours



You cannot post new topics in this forum
You cannot reply to topics in this forum
You cannot edit your posts in this forum
You cannot delete your posts in this forum
You cannot vote in polls in this forum
You cannot attach files in this forum
You cannot download files in this forum