Today is a free download without charge Download

Никогда не сдавайся 2 / Never Back Down 2: The Beatdown (Майкл Джей Уайт / Michael Jai White) [2011, США, боевик, спорт, WEB-DL 720p] MVO (Видеосервис) + Subs + Original Eng

Reply to topic
 
Author
Message

Omen ®

Longevity: 8 years 5 months

Posts: 181087

Торрент-статистика

Post 16-Jan-2013 01:00

[Quote]

Никогда не сдавайся 2 / Never Back Down 2: The Beatdown
Страна: США
Жанр: боевик, спорт
Год выпуска: 2011
Продолжительность: 01:43:33
Перевод: Профессиональный (многоголосый закадровый) - Видеосервис
Субтитры: русские, английские
Навигация по главам: нет
Режиссер: Майкл Джей Уайт / Michael Jai White
В ролях: Майкл Джей Уайт, Эван Питерс, Дин Гейер, Алекс Мераз, Тодд Даффи, Скотти Эпштейн, Джиллиан Мюррэй, Гэбриэлль Шуфф
Описание: На звание чемпиона претендуют четыре бойца, обучить которых самым изобретательным боевым техникам предстоит звезде микс файта Кейсу Уокеру.
У каждого свои преимущества и свои слабые стороны, и только финальный бой выявит сильнейшего. Грядет самый беспощадный чемпионат из когда-либо проводившихся…
Сэмпл: http://narod.ru/disk/65248767001.6ff6ae4b23075b9430...0sample.mkv.html
Качество: WEB-DL 720p
Контейнер: MKV
Видео: AVC 1280x718, (1.78:1), 23,976 fps, 3940 Kbps
Аудио №1: Rus; AC3 5.1; 448 Kbps; 48 kHz; MVO Видеосервис
Аудио №2: Eng; AC3 5.1; 384 Kbps; 48 kHz; Original
Субтитры №1: Rus; SRT
Субтитры №2: Eng, SRT

MediaInfo

General
Unique ID : 224556142286309022789202781408728690416 (0xA8EFF09AD4A5F01CBE3DF1D7F847AEF0)
Complete name : D:\FINAL\Never Back Down 2.mkv
Format : Matroska
Format version : Version 2
File size : 3.52 GiB
Duration : 1h 43mn
Overall bit rate : 4 869 Kbps
Encoded date : UTC 2013-01-08 12:48:29
Writing application : mkvmerge v5.8.0 ('No Sleep / Pillow') built on Sep 2 2012 15:37:04
Writing library : libebml v1.2.3 + libmatroska v1.3.0
Video #1
ID : 1
Format : AVC
Format/Info : Advanced Video Codec
Format profile : [email protected]
Format settings, CABAC : No
Format settings, ReFrames : 2 frames
Codec ID : V_MPEG4/ISO/AVC
Duration : 1h 43mn
Bit rate : 3 940 Kbps
Width : 1 280 pixels
Height : 718 pixels
Display aspect ratio : 16:9
Original display aspect ratio : 16:9
Frame rate mode : Constant
Frame rate : 23.976 fps
Color space : YUV
Chroma subsampling : 4:2:0
Bit depth : 8 bits
Scan type : Progressive
Bits/(Pixel*Frame) : 0.179
Stream size : 2.85 GiB (81%)
Default : Yes
Forced : No
Color primaries : BT.709
Transfer characteristics : BT.709
Matrix coefficients : BT.709
Audio #2
ID : 2
Format : AC-3
Format/Info : Audio Coding 3
Mode extension : CM (complete main)
Format settings, Endianness : Big
Codec ID : A_AC3
Duration : 1h 43mn
Bit rate mode : Constant
Bit rate : 448 Kbps
Channel(s) : 6 channels
Channel positions : Front: L C R, Side: L R, LFE
Sampling rate : 48.0 KHz
Bit depth : 16 bits
Compression mode : Lossy
Stream size : 332 MiB (9%)
Language : Russian
Default : Yes
Forced : No
Audio #3
ID : 3
Format : AC-3
Format/Info : Audio Coding 3
Mode extension : CM (complete main)
Format settings, Endianness : Big
Codec ID : A_AC3
Duration : 1h 43mn
Bit rate mode : Constant
Bit rate : 384 Kbps
Channel(s) : 6 channels
Channel positions : Front: L C R, Side: L R, LFE
Sampling rate : 48.0 KHz
Bit depth : 16 bits
Compression mode : Lossy
Stream size : 284 MiB (8%)
Language : English
Default : No
Forced : No
Text #4
ID : 4
Format : UTF-8
Codec ID : S_TEXT/UTF8
Codec ID/Info : UTF-8 Plain Text
Language : Russian
Default : Yes
Forced : No
Text #5
ID : 5
Format : UTF-8
Codec ID : S_TEXT/UTF8
Codec ID/Info : UTF-8 Plain Text
Language : English
Default : No
Forced : No

Скриншоты

Other forum [Profile] [PM]
Display posts from previous:    
Reply to topic

The time now is: Today 06:18

All times are GMT + 3 Hours



You cannot post new topics in this forum
You cannot reply to topics in this forum
You cannot edit your posts in this forum
You cannot delete your posts in this forum
You cannot vote in polls in this forum
You cannot attach files in this forum
You cannot download files in this forum