Today is a free download without charge Download

Один дома 5: Один в темноте / Праздничное ограбление / Home Alone: The Holiday Heist (Питер Хьюит / Peter Hewitt) [2012, США, Канада, комедия, семейный, HDTVRip 720p] MVO (BaibaKo) Original (Eng)

Reply to topic
 
Author
Message

Omen ®

Longevity: 8 years 5 months

Posts: 181087

Торрент-статистика

Post 16-Jan-2013 01:00

[Quote]

Один дома 5: Один в темноте / Праздничное ограбление / Home Alone: The Holiday Heist Страна: США, Канада
Жанр: комедия, семейный
Год выпуска: 2012
Продолжительность: 01:27:44
Перевод: Профессиональный (многоголосый закадровый) /BaibaKo/
Оригинальная аудиодорожка: английский
Cубтитры: русские /netwatcher/
Режиссер: Питер Хьюит / Peter Hewitt
В ролях: Кристиан Мартин, Джоделль Ферланд, Элли Харви, Малкольм МакДауэлл, Даг Мюррэй, Эдди Стиплз, Эдвард Эснер, Питер ДаКуна, Деби Мейзар, Крис Сигурдсон
Описание: После переезда из солнечной Калифорнии в штат Мэн накануне Рождества, десятилетний Финн и самый младший ребенок в семье, очень непривычно и обеспокоенно чувствует себя в новом доме. Ему кажется, что ужаснее особняка просто и быть не может. Будучи убежденным в обитании здесь потусторонних существ и ради безопасности своей семьи, он подготавливает ловушки, в которые обязательно должны угодить злобные призраки. Оставшись в доме наедине со своей сестрой, малыш умудряется активировать свои сложно устроенные механизмы, в которые попадут вовсе не привидения…
Доп. информация:
Перевод: Янина Галицкая
Озвучка: Светлана Доманова, Татьяна Оболевич, Алексей Кузнецов и Олекса Мельник
Монтаж: Игорь Лихо

Мировая премьера: 25 ноября 2012 года

Качество видео: HDTVRip 720p
Формат видео: MKV
Видео: AVC [email protected] 4870 Кбит/сек 1280x720 23,976 кадра/сек
Аудио: rus: AC-3 6 каналов, 48,0 КГц 384 Кбит/сек
Аудио 2: eng: AC-3 6 каналов, 48,0 КГц 384 Кбит/сек-Релиз: -

MediaInfo

General
Unique ID : 202735809386566476312885497737917680368 (0x98857F21D07DEA6D8115E1303F5ECAF0)
Complete name : Home.Alone-5.The.Holiday.Heist.2012.HDTV720p.Rus.Eng.BaibaKo.tv.mkv
Format : Matroska
Format version : Version 2
File size : 3.46 GiB
Duration : 1h 27mn
Overall bit rate mode : Variable
Overall bit rate : 5 639 Kbps
Movie name : BaibaKo.tv presents - Один дома-5: Рождественское ограбление
Encoded date : UTC 2013-01-08 04:50:07
Writing application : mkvmerge v5.8.0 ('No Sleep / Pillow') built on Sep 2 2012 15:37:04
Writing library : libebml v1.2.3 + libmatroska v1.3.0
Video
ID : 1
Format : AVC
Format/Info : Advanced Video Codec
Format profile : [email protected]
Format settings, CABAC : Yes
Format settings, ReFrames : 5 frames
Codec ID : V_MPEG4/ISO/AVC
Duration : 1h 27mn
Bit rate mode : Variable
Bit rate : 4 870 Kbps
Maximum bit rate : 62.5 Mbps
Width : 1 280 pixels
Height : 720 pixels
Display aspect ratio : 16:9
Frame rate mode : Constant
Frame rate : 23.976 fps
Color space : YUV
Chroma subsampling : 4:2:0
Bit depth : 8 bits
Scan type : Progressive
Bits/(Pixel*Frame) : 0.220
Stream size : 2.92 GiB (84%)
Writing library : x264 core 125 r2208 d9d2288
Encoding settings : cabac=1 / ref=5 / deblock=1:-1:-1 / analyse=0x3:0x113 / me=umh / subme=8 / psy=1 / psy_rd=1.00:0.15 / mixed_ref=1 / me_range=16 / chroma_me=1 / trellis=1 / 8x8dct=1 / cqm=0 / deadzone=21,11 / fast_pskip=1 / chroma_qp_offset=-3 / threads=6 / lookahead_threads=1 / sliced_threads=0 / nr=0 / decimate=1 / interlaced=0 / bluray_compat=0 / constrained_intra=0 / bframes=3 / b_pyramid=0 / b_adapt=2 / b_bias=0 / direct=3 / weightb=1 / open_gop=0 / weightp=2 / keyint=240 / keyint_min=24 / scenecut=40 / intra_refresh=0 / rc_lookahead=50 / rc=2pass / mbtree=1 / bitrate=4870 / ratetol=1.0 / qcomp=0.60 / qpmin=0 / qpmax=69 / qpstep=4 / cplxblur=20.0 / qblur=0.5 / vbv_maxrate=62500 / vbv_bufsize=62500 / nal_hrd=vbr / ip_ratio=1.40 / aq=1:1.00
Default : Yes
Forced : No
Audio #1
ID : 2
Format : AC-3
Format/Info : Audio Coding 3
Mode extension : CM (complete main)
Format settings, Endianness : Big
Codec ID : A_AC3
Duration : 1h 27mn
Bit rate mode : Constant
Bit rate : 384 Kbps
Channel(s) : 6 channels
Channel positions : Front: L C R, Side: L R, LFE
Sampling rate : 48.0 KHz
Bit depth : 16 bits
Compression mode : Lossy
Stream size : 241 MiB (7%)
Title : Rus BaibaKo.tv DD5.1
Language : Russian
Default : Yes
Forced : No
Audio #2
ID : 3
Format : AC-3
Format/Info : Audio Coding 3
Mode extension : CM (complete main)
Format settings, Endianness : Big
Codec ID : A_AC3
Duration : 1h 27mn
Bit rate mode : Constant
Bit rate : 384 Kbps
Channel(s) : 6 channels
Channel positions : Front: L C R, Side: L R, LFE
Sampling rate : 48.0 KHz
Bit depth : 16 bits
Compression mode : Lossy
Stream size : 241 MiB (7%)
Title : Eng DD5.1
Language : English
Default : No
Forced : No
Text
ID : 4
Format : UTF-8
Codec ID : S_TEXT/UTF8
Codec ID/Info : UTF-8 Plain Text
Title : netwatcher RUS
Language : Russian
Default : No
Forced : No

Скриншот c названием фильма

Скриншоты



-
-
Other forum [Profile] [PM]
Display posts from previous:    
Reply to topic

The time now is: Today 06:02

All times are GMT + 3 Hours



You cannot post new topics in this forum
You cannot reply to topics in this forum
You cannot edit your posts in this forum
You cannot delete your posts in this forum
You cannot vote in polls in this forum
You cannot attach files in this forum
You cannot download files in this forum