Today is a free download without charge Download

Ограбление казино / Killing Them Softly (Эндрю Доминик) [2012, триллер, драма, криминал, BDRip 1080p] R5 Dub + Sub Eng + Original Eng

Reply to topic
 
Author
Message

Omen ®

Longevity: 8 years 5 months

Posts: 181087

Торрент-статистика

Post 16-Jan-2013 01:00

[Quote]

Ограбление казиноKilling Them SoftlyГод выпуска: 2012
Страна: США
Слоган: «In America you're on your own»
Жанр: триллер, драма, криминал
Продолжительность: 01:37:06
Перевод: Дублированный [лицензия]
Субтитры: Английские
Оригинальная аудиодорожка: английский-Режиссер: Эндрю Доминик
Сценарий: Эндрю Доминик, Джордж В. Хиггинс
Продюсер: Пола Мэй Шварц, Стив Шварц, Деде Гарднер, Брэд Питт, Мэттью Бадман
Оператор: Грег Фрэйзер
В ролях: Брэд Питт, Ричард Дженкинс, Джеймс Гандольфини, Рэй Лиотта, Скут МакНэйри, Бен Мендельсон, Винсент Куратола, Тревор Лонг, Макс Каселла, Сэм Шепард-Бюджет: $15 000 000
Сборы в США: $14 920 041
Сборы в России: $2 272 277
Сборы в мире: $34 347 546-Мировая премьера: 22 мая 2012
Релиз на DVD: 22 января 2013, «Флагман-Трейд»
Релиз на Blu-ray: Январь 2013, «Флагман-Трейд»-Описание: Во время подпольной игры в покер совершено ограбление, и угроза повисла над всем воровским сообществом. Воротилы мафии рассчитывают, что Джеки Коган найдет виновных. Однако, вращаясь среди нерешительных заказчиков, жуликов-ростовщиков, усталых убийц и тех, кто спланировал «дело», даже специалисту трудно сохранить контроль над ситуацией.- User Rating: 6.649 (4329)- User Rating: 6.70 (24 027)-MPAA: R - Лицам до 17 лет обязательно присутствие взрослого-

NFO

Формат : Matroska
Версия формата : Version 2
Размер файла : 8,46 Гбайт
Продолжительность : 1 ч. 37 м.
Общий поток : 12,5 Мбит/сек
Название фильма : --SCHUMAHER--
Дата кодирования : UTC 2013-01-15 11:07:10
Программа кодирования : mkvmerge v5.8.0 ('No Sleep / Pillow') built on Sep 2 2012 15:37:04
Библиотека кодирования : libebml v1.2.3 + libmatroska v1.3.0
Видео
Идентификатор : 1
Формат : AVC
Формат/Информация : Advanced Video Codec
Профиль формата : [email protected]
Параметр CABAC формата : Да
Параметр ReFrames формата : 5 кадров
Идентификатор кодека : V_MPEG4/ISO/AVC
Продолжительность : 1 ч. 37 м.
Битрейт : 10,3 Мбит/сек
Номинальный битрейт : 11,0 Мбит/сек
Ширина : 1920 пикселей
Высота : 800 пикселей
Соотношение сторон : 2,40:1
Режим частоты кадров : Постоянный
Частота кадров : 24,000 кадра/сек
Цветовое пространство : YUV
Субдискретизация насыщенности : 4:2:0
Битовая глубина : 8 бит
Тип развёртки : Прогрессивная
Бит/(Пиксели*Кадры) : 0.278
Размер потока : 6,96 Гбайт (82%)
Библиотека кодирования : x264 core 129 r2230 1cffe9f
Настройки программы : cabac=1 / ref=5 / deblock=1:0:0 / analyse=0x3:0x113 / me=umh / subme=8 / psy=1 / psy_rd=1.00:0.00 / mixed_ref=1 / me_range=16 / chroma_me=1 / trellis=1 / 8x8dct=1 / cqm=0 / deadzone=21,11 / fast_pskip=1 / chroma_qp_offset=-2 / threads=16 / lookahead_threads=2 / sliced_threads=0 / nr=0 / decimate=1 / interlaced=0 / bluray_compat=0 / constrained_intra=0 / bframes=3 / b_pyramid=2 / b_adapt=1 / b_bias=0 / direct=1 / weightb=1 / open_gop=0 / weightp=2 / keyint=240 / keyint_min=24 / scenecut=40 / intra_refresh=0 / rc_lookahead=60 / rc=abr / mbtree=1 / bitrate=11000 / ratetol=1.0 / qcomp=0.60 / qpmin=0 / qpmax=69 / qpstep=4 / ip_ratio=1.40 / aq=1:1.00
Язык : English
Default : Да
Forced : Да
Аудио #1
Идентификатор : 2
Формат : AC-3
Формат/Информация : Audio Coding 3
Расширение режима : CM (complete main)
Параметр Endianness формата : Big
Идентификатор кодека : A_AC3
Продолжительность : 1 ч. 37 м.
Вид битрейта : Постоянный
Битрейт : 448 Кбит/сек
Каналы : 6 каналов
Расположение каналов : Front: L C R, Side: L R, LFE
Частота : 48,0 КГц
Битовая глубина : 16 бит
Метод сжатия : С потерями
Размер потока : 311 Мбайт (4%)
Язык : Russian
Default : Да
Forced : Да
Аудио #2
Идентификатор : 3
Формат : DTS
Формат/Информация : Digital Theater Systems
Режим : 16
Параметр Endianness формата : Big
Идентификатор кодека : A_DTS
Продолжительность : 1 ч. 37 м.
Вид битрейта : Постоянный
Битрейт : 1509 Кбит/сек
Каналы : 6 каналов
Расположение каналов : Front: L C R, Side: L R, LFE
Частота : 48,0 КГц
Битовая глубина : 24 бит
Метод сжатия : С потерями
Размер потока : 1,02 Гбайт (12%)
Язык : English
Default : Нет
Forced : Нет
Текст
Идентификатор : 4
Формат : UTF-8
Идентификатор кодека : S_TEXT/UTF8
Идентификатор кодека/Информация : UTF-8 Plain Text
Язык : English
Default : Нет
Forced : Нет
Меню
00:00:00.000 : en:00:00:00.000
00:11:09.208 : en:00:11:09.208
00:23:32.042 : en:00:23:32.042
00:35:21.583 : en:00:35:21.583
00:46:29.917 : en:00:46:29.917
00:58:23.750 : en:00:58:23.750
01:10:29.917 : en:01:10:29.917
01:23:16.125 : en:01:23:16.125
-Качество: BDRip 1080p
Формат: MKV
Видео: MPEG-4 AVC, 11.0 Мбит/с, 1920x800, 24.000 кадр/с
Аудио №1: Russian, АС3, 6 ch, 448 Кбит/с
Аудио №2: English, DTS, 6 ch, 1510 Кбит/с-

Знаете ли Вы, что...

  • Зои Салдана рассматривалась на одну из ролей.

Скриншоты

Other forum [Profile] [PM]
Display posts from previous:    
Reply to topic

The time now is: Today 02:31

All times are GMT + 3 Hours



You cannot post new topics in this forum
You cannot reply to topics in this forum
You cannot edit your posts in this forum
You cannot delete your posts in this forum
You cannot vote in polls in this forum
You cannot attach files in this forum
You cannot download files in this forum