Today is a free download without charge Download

Три богатыря на дальних берегах (Константин Феоктистов) [2012 г., Мультфильм, приключения, семейный, DVDRip, Оригинал, Лицензия]

Reply to topic
 
Author
Message

Meshanik ®

Gender:

Longevity: 8 years 4 months

Posts: 3866

Location: Los Angeles

Торрент-статистика

Post 15-Jan-2013 23:54

[Quote]


Три богатыря на дальних берегах
- Русское название: Три богатыря на дальних берегах
Год выпуска: 2012
Страна: Россия
Жанр: Мультфильм, приключения, семейный
Продолжительность: 01:06:19
Перевод: Оригинал | Лицензия |
Cубтитры: нет-Дата мировой премьеры: 27 декабря 2012
Дата российской премьеры: 27 декабря 2012, «Наше Кино»
Дата выхода DVD релиза: 22 января 2013, «Lizard Cinema Trade»-Режиссер: Константин Феоктистов
Продюсер: Александр Боярский, Сергей Сельянов
В ролях: Дмитрий Высоцкий, Фёдор Бондарчук, Елизавета Боярская, Мария Цветкова-Овсянникова, Елена Шульман, Лия Медведева
-Описание:
Очередное путешествие таит в себе не только новые опасности, но и новые земли. Герои держат путь далеко от дома и как всегда с благородной целью — помочь людям. Кому, зачем и как? Не по-богатырски это — в раздумья пускаться, когда время поджимает и нужно действовать! Правда, помощь иной раз оказывается хуже татарской орды, но богатыри не отчаиваются, тем более что у них много верных помощников. Ради спасения своих друзей, героям придется подчас идти на очень решительные шаги, жертвовать собой и не думать, что ждет их впереди. Но, как известно, удача любит смелых и отважных.
-| КиноПоиск | Семпл|-Качество: DVDRip
Формат: AVI
Видео кодек: XviD
Аудио кодек: MP3
Видео: 720x400 (1.80:1), 25 fps, XviD build 50 ~1170 kbps avg, 0.16 bit/pixel
Аудио : 48 kHz, AC3 Dolby Digital, 3/2 (L,C,R,l,r) + LFE ch, ~256.00 kbps avg
-

MediaInfo:

Код:
Общее
Полное имя                               : E:\Загрузка\Tri.bogatirya.na.dalnih.beregah.2012.O.DVDRip.700Mb.avi
Формат                                   : AVI
Формат/Информация                        : Audio Video Interleave
Размер файла                             : 703 Мбайт
Продолжительность                        : 1 ч. 8 м.
Общий поток                              : 1437 Кбит/сек
Программа кодирования                    : VirtualDubMod 1.5.10.3 | www.virtualdub-fr.org || (build 2550/release)
Библиотека кодирования                   : VirtualDubMod build 2550/release
Видео
Идентификатор                            : 0
Формат                                   : MPEG-4 Visual
Профиль формата                          : Advanced [email protected]
Параметр BVOP формата                    : 4
Параметр QPel формата                    : Нет
Параметр GMC формата                     : Без точки перехода
Параметр матрицы формата                 : Default (MPEG)
Идентификатор кодека                     : XVID
Идентификатор кодека/Подсказка           : XviD
Продолжительность                        : 1 ч. 8 м.
Битрейт                                  : 1171 Кбит/сек
Ширина                                   : 720 пикселей
Высота                                   : 400 пикселей
Соотношение сторон                       : 16:9
Частота кадров                           : 25,000 кадров/сек
Цветовое пространство                    : YUV
Субдискретизация насыщенности            : 4:2:0
Битовая глубина                          : 8 бит
Тип развёртки                            : Прогрессивная
Метод сжатия                             : С потерями
Бит/(Пиксели*Кадры)                      : 0.163
Размер потока                            : 573 Мбайт (82%)
Библиотека кодирования                   : XviD 1.2.1 (UTC 2008-12-04)
Аудио
Идентификатор                            : 1
Формат                                   : AC-3
Формат/Информация                        : Audio Coding 3
Расширение режима                        : CM (complete main)
Параметр Endianness формата              : Big
Идентификатор кодека                     : 2000
Продолжительность                        : 1 ч. 8 м.
Вид битрейта                             : Постоянный
Битрейт                                  : 256 Кбит/сек
Каналы                                   : 6 каналов
Расположение каналов                     : Front: L C R, Side: L R, LFE
Частота                                  : 48,0 КГц
Битовая глубина                          : 16 бит
Метод сжатия                             : С потерями
Размер потока                            : 125 Мбайт (18%)
Выравнивание                             : Разделение по промежуткам
Продолжительность промежутка             : 40  мс. (1,00 видеокадр)
Время предзагрузки промежутка            : 500  мс.
-

Скриншоты:

         
-
Other forum [Profile] [PM]
Display posts from previous:    
Reply to topic

The time now is: Today 22:03

All times are GMT + 3 Hours



You cannot post new topics in this forum
You cannot reply to topics in this forum
You cannot edit your posts in this forum
You cannot delete your posts in this forum
You cannot vote in polls in this forum
You cannot attach files in this forum
You cannot download files in this forum