Today is a free download without charge Download

Zettai Karen Children / Absolutely Lovely Children / Восхитительные дети [2008, TV, 51 из 51] DVDRip raw+rus

Reply to topic
 
Author
Message

Omen ®

Longevity: 7 years 11 months

Posts: 181087

Торрент-статистика

Post 15-Jan-2013 22:24

[Quote]

-絶対可憐チルドレン / Absolutely Lovely Children / Восхитительные дети- Жанр: Приключения, комедия, махо-сёдзё
Тип: TV-сериал
Количество серий: 51 из 51
Продолжительность: ТВ (51 эп.), 25 мин.
Дата премьеры / период выхода: c 06.04.2008 по 29.03.2009
Режиссер: Кавагути Кэйитиро
Автор оригинала: Сиина Такаси
Производство/студия:

Качество видео: DVDRip
Видео: MPEG-4, 704x396, 29,970 кадра/сек, ~1230 кбит/с
Аудио #1: MPEG Audio, 44,1 КГц, 2 ch, ~128,00 кбит/с Звук: Русский (любительский одноголосый, закадровый). Озвучка: sergej80
Аудио #2: MPEG Audio, 44,1 КГц, 2 ch, ~128,00 кбит/с Звук: Японский.
Субтитры: русские подключаемые. Перевод: Sashamoon & KDiana
Описание:
В недалеком будущем начинает появляться много людей, с рождения наделенных экстрасенсорными способностями. Японское правительство создает Бэйбел (специальное подразделение экстрасенсов по борьбе с мировым злом), состоящее из трех сильнейших эсперов Японии. И все бы было хорошо, если бы не тот факт, что все трое - десятилетние девочки, только-только вступающие в переходный возраст.
© Lisek, World Art

MediaInfo

Код:
Общее
Полное имя                               : R:\torrent\Zettai Karen Children\Zettai Karen Children-01[rus jap].avi
Формат                                   : AVI
Формат/Информация                        : Audio Video Interleave
Размер файла                             : 265 Мбайт
Продолжительность                        : 24 м.
Общий поток                              : 1504 Кбит/сек
Программа кодирования                    : VirtualDubMod 1.5.10.2 (build 2540/release)
Библиотека кодирования                   : VirtualDubMod build 2540/release
Видео
Идентификатор                            : 0
Формат                                   : MPEG-4 Visual
Профиль формата                          : Advanced [email protected]
Параметр BVOP формата                    : 2
Параметр QPel формата                    : Нет
Параметр GMC формата                     : Без точки перехода
Параметр матрицы формата                 : Default (H.263)
Идентификатор кодека                     : XVID
Идентификатор кодека/Подсказка           : XviD
Продолжительность                        : 24 м.
Битрейт                                  : 1230 Кбит/сек
Ширина                                   : 704 пикселя
Высота                                   : 396 пикселей
Соотношение сторон                       : 16:9
Частота кадров                           : 29,970 кадров/сек
Цветовое пространство                    : YUV
Субдискретизация насыщенности            : 4:2:0
Битовая глубина                          : 8 бит
Тип развёртки                            : Прогрессивная
Метод сжатия                             : С потерями
Бит/(Пиксели*Кадры)                      : 0.147
Размер потока                            : 217 Мбайт (82%)
Библиотека кодирования                   : XviD 1.2.1 (UTC 2008-12-04)
Аудио #1
Идентификатор                            : 1
Формат                                   : MPEG Audio
Версия формата                           : Version 1
Профиль формата                          : Layer 3
Режим                                    : Joint stereo
Расширение режима                        : MS Stereo
Идентификатор кодека                     : 55
Идентификатор кодека/Подсказка           : MP3
Продолжительность                        : 24 м.
Вид битрейта                             : Постоянный
Битрейт                                  : 128 Кбит/сек
Каналы                                   : 2 канала
Частота                                  : 44,1 КГц
Метод сжатия                             : С потерями
Размер потока                            : 22,6 Мбайт (9%)
Выравнивание                             : Разделение по промежуткам
Продолжительность промежутка             : 33  мс. (1,00 видеокадр)
Время предзагрузки промежутка            : 500  мс.
Библиотека кодирования                   : LAME3.98
Аудио #2
Идентификатор                            : 2
Формат                                   : MPEG Audio
Версия формата                           : Version 1
Профиль формата                          : Layer 3
Режим                                    : Joint stereo
Расширение режима                        : MS Stereo
Идентификатор кодека                     : 55
Идентификатор кодека/Подсказка           : MP3
Продолжительность                        : 24 м.
Вид битрейта                             : Постоянный
Битрейт                                  : 128 Кбит/сек
Каналы                                   : 2 канала
Частота                                  : 44,1 КГц
Метод сжатия                             : С потерями
Размер потока                            : 22,6 Мбайт (9%)
Выравнивание                             : Разделение по промежуткам
Продолжительность промежутка             : 33  мс. (1,00 видеокадр)
Время предзагрузки промежутка            : 500  мс.
Библиотека кодирования                   : LAME3.98

Эта серия состоит из:

#1 Zettai Karen Children - ТВ (51 эп. + 2 спэшла), адаптация манги, 2008
#2 Zettai Karen Children OVA: Aitazousei! Ubawareta Mirai? - OVA (1 эп.), продолжение, 2010
#3 The Unlimited: Hyoubu Kyousuke - ТВ (>12 эп.), spinoff (ответвление сюжета), 2013

Эпизоды:

01. Absolutely Lovely! Their Name Is "The Children"
02. Don't worry! The Soaring Tower of Babel!
03. A Virtuous Person Acts According To His Morals! It's Painful Being An Esper
04. Beautiful Spring Scenery! Go, go! Pretty high school girl!
05. Unpreparedness is your greatest enemy! You wouldn't normally enter, right?
06. Bring on the Fight! Before Your Classmate's Eyes...!?
07. Happens All the Time! The Restricted Children
08. Hyoubu Kyousuke! Wha, he showed up?
09. Attractive bodies! We became adults!?
10. Danger Awaits! Hurry B.A.B.E.L. 2!
11. Open Air Bath! Shining Eyes in the Steam!
12. Goal! Teleport To Japan's Future!!
13. Family Collapsing? Epic Paradise Battle!!
14. Brilliant Minds!? Children Detectives
15. Golden Rule! Don't Run Away!!
16. A Promise Should Be Kept At All Costs! Memories of Distant Days...
17. Survival of the Fittest! I'm Gonna Eat
18. Passionate Love Detected! Children Breakup Crisis!
19. Berserk Angel! Naomi's House Arrest...!
20. Ultra-Beast Giga! Occasionally Like A Beast...
21. Jack of All Trades! Why Is He Angry!?
22. The Environment Is Crucial to A Child's Learning Ability! Minamoto, the Assassin's Plot Is Dissolved!?
23. Sudden Turn-Around! Snatched Away...!
24. Professinal Homemaker! Washed Up...!
25. Easy Delivery Prayer! Hello Baby
26. Foresight Transformation? The Future Is Dancing!
27. Proclamation of War! Pandora's Written Challenge
28. Charms Of A Beautiful Woman! Warning From Tsubomi!
29. Art of Coaxing! Heaven Is the Closest Beach
30. Woes Unite Foes! Do Safeblowing By Design?
31. World Treasures! On To Kyoto!
32. Beautiful Delicacies! Touch Me If You Can!
33. Autumn Hike! The Lunch Box is in the Thicket
34. From Flies To Mosquitoes Everywhere! Minamoto Is Using His Hands And Legs Too?!
35. Much Drama And Hate! Hatsune Runs Away From Home!
36. Guys Prohibited! Afternoon Of The Angels!
37. A Strong Enemy Arrives! Black Phantom!
38. The Butterfly's Dream Dream-Maker!
39. Evanescence Psycho-Divers!
40. Tsubomi Lodge! Go In!
41. Marriage Proposal! The King And The Children!
42. Combination Problem! Fantastic Toy
43. Odd Couple! Caroline Fated Reunion
44. The Pain of Separation from Loved Ones! Carrie, Eternal Farewell
45. The Natural Gift! Gift of Children
46. Suspicion Breeds Suspicion! The Notebook of "Make It Turn Out Just Like That"
47. Once Upon A Springtime Dream! Memories of Tomorrow
48. Power Uproar! The Invisible Threat
49. Fleeting Shifts and Changes! Eh, Minamoto Is!?
50. Earnest Struggle! Over the Future
51. Riot of Cherry Blossoms! Well Then, See You Later
Ссылки:
Ani-DB ::: World Art
Скриншоты:
       
       
Other forum [Profile] [PM]
Display posts from previous:    
Reply to topic

The time now is: Today 09:32

All times are GMT + 3 Hours



You cannot post new topics in this forum
You cannot reply to topics in this forum
You cannot edit your posts in this forum
You cannot delete your posts in this forum
You cannot vote in polls in this forum
You cannot attach files in this forum
You cannot download files in this forum