Today is a free download without charge Download

Три богатыря на дальних берегах (Константин Феоктистов) [2012 г., мультфильм, комедия, приключения, DVDRip, Оригинал]-Лицензия

Reply to topic
 
Author
Message

Meshanik ®

Gender:

Longevity: 8 years 5 months

Posts: 3866

Location: Los Angeles

Торрент-статистика

Post 15-Jan-2013 22:02

[Quote]


Три богатыря на дальних берегах
- Русское название: Три богатыря на дальних берегах
Год выпуска: 2012
Производство: Россия / Кинокомпания СТВ
Жанр: Мультфильм, Комедия, Приключения
Перевод: Не требуется (русский)
Субтитры: Отсутствуют-Дата мировой премьеры: 27 декабря 2012
Дата российской премьеры: 27 декабря 2012, «Наше Кино»
Дата выхода DVD релиза: 22 января 2013, «Lizard Cinema Trade»-Режиссер: Константин Феоктистов
Продюсер: Александр Боярский, Сергей Сельянов
В ролях: Дмитрий Высоцкий, Фёдор Бондарчук, Елизавета Боярская, Мария Цветкова-Овсянникова, Елена Шульман, Лия Медведева-Описание: На этот раз Алеша Попович, Добрыня Никитич и Илья Муромец, благодаря козням коварной Бабы Яги, оказываются за семью морями на острове, на котором живут туземцы и страшный Гомума. В их отсутствие купец Колыван решают вместе с Бабой-Ягой захватить царство и забрать власть у князя Киевского. На помощь незадачливому правителю приходит конь Юлий, а также жены богатырей и их многочисленные родственники. Словом, богатырей и зрителей ждут приключения на дальних берегах, обыкновенные и невероятные.- -Качество: DVDRip
Формат: AVI
Видео кодек: XviD
Аудио кодек: AC-3
Видео: 720x400 (1.80:1), 25 fps, XviD build 50 ~2398 kbps avg, 0.33 bit/pixe
Аудио#1: 48 kHz, AC3 Dolby Digital, 3/2 (L,C,R,l,r) + LFE ch, ~448 kbps-

MediaInfo

Код:
Общее
Полное имя                               : D:Три богатыря на дальних берегах.2012.O.DVDRip.avi
Формат                                   : AVI
Формат/Информация                        : Audio Video Interleave
Размер файла                             : 1,36 Гбайт
Продолжительность                        : 1 ч. 8 м.
Общий поток                              : 2857 Кбит/сек
Программа кодирования                    : VirtualDubMod 1.5.10.3 | [url=http:///*spam*//go/eF4rLy/XK8ssKilNzEkpTdJNK9LLL0oHAF4ACFE=" target="_blank" rel="nofollow]www.virtualdub-fr.org[/url] || (build 2550/release)
Библиотека кодирования                   : VirtualDubMod build 2550/release
Видео
Идентификатор                            : 0
Формат                                   : MPEG-4 Visual
Профиль формата                          : Advanced [email protected]
Параметр BVOP формата                    : 2
Параметр QPel формата                    : Нет
Параметр GMC формата                     : Без точки перехода
Параметр матрицы формата                 : Default (MPEG)
Идентификатор кодека                     : XVID
Идентификатор кодека/Подсказка           : XviD
Продолжительность                        : 1 ч. 8 м.
Битрейт                                  : 2399 Кбит/сек
Ширина                                   : 720 пикселей
Высота                                   : 400 пикселей
Соотношение сторон                       : 16:9
Частота кадров                           : 25,000 кадров/сек
Цветовое пространство                    : YUV
Субдискретизация насыщенности            : 4:2:0
Битовая глубина                          : 8 бит
Тип развёртки                            : Прогрессивная
Метод сжатия                             : С потерями
Бит/(Пиксели*Кадры)                      : 0.333
Размер потока                            : 1,15 Гбайт (84%)
Библиотека кодирования                   : XviD 1.2.1 (UTC 2008-12-04)
Аудио
Идентификатор                            : 1
Формат                                   : AC-3
Формат/Информация                        : Audio Coding 3
Расширение режима                        : CM (complete main)
Параметр Endianness формата              : Big
Идентификатор кодека                     : 2000
Продолжительность                        : 1 ч. 8 м.
Вид битрейта                             : Постоянный
Битрейт                                  : 448 Кбит/сек
Каналы                                   : 6 каналов
Расположение каналов                     : Front: L C R, Side: L R, LFE
Частота                                  : 48,0 КГц
Битовая глубина                          : 16 бит
Метод сжатия                             : С потерями
Размер потока                            : 219 Мбайт (16%)
Выравнивание                             : Разделение по промежуткам
Продолжительность промежутка             : 40  мс. (1,00 видеокадр)
Время предзагрузки промежутка            : 500  мс.
-

Скриншоты:

     
Other forum [Profile] [PM]

KirovSOFT

Gender:

Longevity: 8 years 7 months

Posts: 998

Location: Кировская область -Оричи

Торрент-статистика

Post 15-Jan-2013 22:26 (after 23 minutes)

[Quote]

Shift, пасиб

_________________
Other forum [Profile] [PM]

crimeR

Longevity: 9 years 9 months

Posts: 19

Торрент-статистика

Post 15-Jan-2013 22:59 (after 33 minutes)

[Quote]

Чо прям ДВД рип уже???

_________________
The cruncher's way is long as a Jedi's one © Fe[R]gity (TSC! Russia - let's rock!)
Other forum [Profile] [PM]

shturmovik83

Gender:

Longevity: 10 years

Posts: 176

Торрент-статистика

Post 16-Jan-2013 00:42 (after 1 hour 42 minutes)

[Quote]

crimeR писал(а):
Чо прям ДВД рип уже???
ты не поверишь звук в лицезии

_________________
Other forum [Profile] [PM]

crimeR

Longevity: 9 years 9 months

Posts: 19

Торрент-статистика

Post 15-Feb-2013 11:26 (after 30 days)

[Quote]

Качество класс! Но сам мульт на 3+, а это уже не к релизеру... Главное дите которое на новогодних аншлагах не попало в кинотеатр счастливо!

_________________
The cruncher's way is long as a Jedi's one © Fe[R]gity (TSC! Russia - let's rock!)
Other forum [Profile] [PM]
Display posts from previous:    
Reply to topic

The time now is: Today 19:36

All times are GMT + 3 Hours



You cannot post new topics in this forum
You cannot reply to topics in this forum
You cannot edit your posts in this forum
You cannot delete your posts in this forum
You cannot vote in polls in this forum
You cannot attach files in this forum
You cannot download files in this forum