Today is a free download without charge Download

Братья Гримм / The Brothers Grimm (Терри Гиллиам / Terry Gilliam) [2005 г.] (ужасы, триллер, фэнтези, комедия, приключения) [BDRip-AVC] (Dub) [internal release]

Reply to topic
 
Author
Message

Varius ®

Gender:

Longevity: 9 years

Posts: 2405

Location: Hell

Торрент-статистика

Post 01-May-2011 09:20

[Quote]

---Братья Гримм / The Brothers Grimm--- Год выпуска: 2005
Производство: США
Жанр: ужасы, триллер, фэнтези, комедия, приключения
Перевод: Профессиональное (полное дублирование)
Режиссер: Терри Гиллиам / Terry Gilliam
В ролях: Мэтт Дэймон, Хит Леджер, Анна Руст, Джереми Робсон, Петр Ратимец, Барбора Лукесова, Радим Калвода, Мартин Хофманн, Джозеф Пепа Нос, Гарри Гиллиам, Мирослав Таборски, Роджер Эштон-Гриффитс, Марика Сара Прочазкова, Маккензи Крук, Ричард Райдингс, Алена Якобова, Рудольф Пеллар, Дэна Доналова, Петра Доналова, Ханус Бор, Ота Филип
Описание: Давным-давно, жили-были два брата-авантюриста Уилл и Джейк Гримм, которые впоследствии стали знаменитыми сказочниками. Но до того они путешествовали по деревушкам, занимаясь собиранием фольклора и 'прогоняя нечисть' за деньги… Приезжали в деревню, убеждали жителей, что на их мельнице поселилась ведьма, а потом - за вознаграждение - успешно «изгоняли» ее. В следующем селе это был тролль под мостом и так далее.
Но однажды слава об «экзорцистах» дошла до наполеоновских властей, которые приказали братьям расследовать серию загадочных исчезновений юных девушек в лесу на границе Франции и Германии. Тут-то наши герои и сталкиваются нос к носу с настоящей нечистью - злой колдуньей… Уиллу и Джейку придется проявить все свои незаурядные способности, ведь в случае неудачи горе-детективов ждет гильотина...
Релиз группы:
Источник/Качество: BDRip-AVC | Семпл | IMDB | КиноПоиск
Формат: MKV
Видео кодек: H.26x
Аудио кодек: AC3
Видео: 1008х544, 1 840 Kbps, 23.976 fps
Аудио№1: 320 Kbps, 6 channels, 48.0 KHz - Rus
Аудио№2: 320 Kbps, 6 channels, 48.0 KHz - Eng

Награды

Венецианский кинофестиваль, 2005 год
Номинации (1):
Золотой лев

MediaInfo

General
Complete name : D:Brother_Grimm.2005.D.BDRip.x264.JRG.mkv
Format : Matroska
File size : 2.05 GiB
Duration : 1h 58mn
Overall bit rate : 2 480 Kbps
Encoded date : UTC 2011-04-26 16:36:31
Writing application : mkvmerge v4.0.0 ('The Stars were mine') сборка от Jun 6 2010 16:18:42
Writing library : libebml v1.0.0 + libmatroska v1.0.0
Video
ID : 1
Format : AVC
Format/Info : Advanced Video Codec
Format profile : [url=mailto:[email protected]][email protected][/url]
Format settings, CABAC : Yes
Format settings, ReFrames : 8 frames
Codec ID : V_MPEG4/ISO/AVC
Duration : 1h 58mn
Bit rate : 1 840 Kbps
Width : 1 008 pixels
Height : 544 pixels
Display aspect ratio : 1.853
Frame rate : 23.976 fps
Color space : YUV
Chroma subsampling : 4:2:0
Bit depth : 8 bits
Scan type : Progressive
Bits/(Pixel*Frame) : 0.140
Stream size : 1.48 GiB (72%)
Title : Brother_Grimm.JRG special for /*spam*/
Writing library : x264 core 113 r1884 7313bb5
Audio #1
ID : 2
Format : AC-3
Format/Info : Audio Coding 3
Mode extension : CM (complete main)
Codec ID : A_AC3
Duration : 1h 58mn
Bit rate mode : Constant
Bit rate : 320 Kbps
Channel(s) : 6 channels
Channel positions : Front: L C R, Side: L R, LFE
Sampling rate : 48.0 KHz
Bit depth : 16 bits
Stream size : 271 MiB (13%)
Language : Russian
Audio #2
ID : 3
Format : AC-3
Format/Info : Audio Coding 3
Mode extension : CM (complete main)
Codec ID : A_AC3
Duration : 1h 58mn
Bit rate mode : Constant
Bit rate : 320 Kbps
Channel(s) : 6 channels
Channel positions : Front: L C R, Side: L R, LFE
Sampling rate : 48.0 KHz
Bit depth : 16 bits
Stream size : 271 MiB (13%)
Language : English

Скриншоты

     

_________________

Создавая "Новую папку", не считайте себя Создателем - это право Вам дано Админом




Last edited by Varius on 2011-05-04 12:15; edited 2 times in total
Other forum [Profile] [PM]
Similar theme
Forum Topic Author Torrent Replies Last Post
./templates/default/images/folder_dl.gif Кулинария Олеся Гиевская | Ешьте это, а не то. Как выбрать правильные продукты в супермаркете (2013) [PDF] moralis
1 | 0

0 | 637

4

2016-01-11 22:35
moralis Latest
Display posts from previous:    
Reply to topic

The time now is: Today 17:40

All times are GMT + 3 Hours



You cannot post new topics in this forum
You cannot reply to topics in this forum
You cannot edit your posts in this forum
You cannot delete your posts in this forum
You cannot vote in polls in this forum
You cannot attach files in this forum
You cannot download files in this forum