Сегодня идет свободное скачивание без начисления Download

Лев Гурыч Синичкин (1974) [H.264] DVDRip

Ответить на тему
 
Автор
Сообщение

Omen ®

Стаж: 5 лет 10 месяцев

Сообщений: 184329

Торрент-статистика

Пост 15-Янв-2013 00:20

[Цитировать]

-Лев Гурыч Синичкин (1974) [H.264] DVDRip- Русское название: Лев Гурыч Синичкин
Год выпуска: 1974
Жанр: Музыкальная комедия
Описание фильма:
Телефильм. Экранизация старого русского водевиля Д.Ленского (предыдущая киноверсия 1956г. - "На подмостках сцены" К.Юдина). Старый актер мечтает о главной роли для своей юной талантливой дочери. Однако ей противостоит могущественная примадонна труппы с ужасным характером и большими связями. После ряда усилий героев и веселых недоразумений мечта старика сбывается, а стерва-премьерша посрамлена вместе со своим высоким покровителем. Работа Н.Мордюковой в роли премьерши Сурмиловой - одна из лучших ее комедийных работ
Режиссер: Александр Белинский
Актеры: Николай Трофимов, Галина Федотова, Нонна Мордюкова, Леонид Куравлёв, Олег Табаков, Михаил Козаков, Андрей Миронов, Пётр Щербаков, Роман Ткачук
Продолжительность: 01:12:14

Видеокодек: MPEG-4 AVC/H.264
Битрейт видео: ~1958 Кбит/сек
Размер кадра: 768x576
Качество видео: DVDRip
Аудиокодек: AC3 2.0
Битрейт аудио: 256 Кбит/сек

MediaInfo:

Общее
Уникальный идентификатор : 168348648403719580577546155723716462494 (0x7EA6C532C2870C1E037BA147C20E879E)
Полное имя : \\VOVAUS\rip\гот\LEV_GURICH_SINICHKIN\LEV_GURICH_SINICHKIN.mkv
Формат : Matroska
Версия формата : Version 2
Размер файла : 1,14 Гбайт
Продолжительность : 1 ч. 12 м.
Общий поток : 2259 Кбит/сек
Программа кодирования : Lavf51.12.1
Библиотека кодирования : Lavf51.12.1
Видео
Идентификатор : 1
Формат : AVC
Формат/Информация : Advanced Video Codec
Профиль формата : [url=mailto:[email protected]][email protected][/url]
Параметр CABAC формата : Нет
Параметр ReFrames формата : 2 кадра
Идентификатор кодека : V_MPEG4/ISO/AVC
Продолжительность : 1 ч. 12 м.
Битрейт : 1958 Кбит/сек
Ширина : 768 пикселей
Высота : 576 пикселей
Соотношение сторон : 4:3
Режим частоты кадров : Постоянный
Частота кадров : 25,000 кадров/сек
Стандарт вещания : PAL
Цветовое пространство : YUV
Субдискретизация насыщенности : 4:2:0
Битовая глубина : 8 бит
Тип развёртки : Прогрессивная
Бит/(Пиксели*Кадры) : 0.177
Размер потока : 1012 Мбайт (87%)
Default : Да
Forced : Нет
Основные цвета : BT.601 PAL
Характеристики трансфера : BT.470 System B, BT.470 System G
Коэффициенты матрицы : BT.601
Аудио
Идентификатор : 2
Формат : AC-3
Формат/Информация : Audio Coding 3
Расширение режима : CM (complete main)
Параметр Endianness формата : Big
Идентификатор кодека : A_AC3
Продолжительность : 1 ч. 12 м.
Вид битрейта : Постоянный
Битрейт : 256 Кбит/сек
Каналы : 2 канала
Расположение каналов : Front: L R
Частота : 48,0 КГц
Битовая глубина : 16 бит
Метод сжатия : С потерями
Размер потока : 132 Мбайт (11%)
Default : Да
Forced : Нет
Скриншоты:
         
         
Вне форума [Профиль] [ЛС]
Показать сообщения:    
Ответить на тему

Текущее время: Сегодня 20:37

Часовой пояс: GMT + 3



Вы не можете начинать темы
Вы не можете отвечать на сообщения
Вы не можете редактировать свои сообщения
Вы не можете удалять свои сообщения
Вы не можете голосовать в опросах
Вы не можете прикреплять файлы к сообщениям
Вы не можете скачивать файлы