Today is a free download without charge Download

Лев Гурыч Синичкин (1974) [H.264] DVDRip

Reply to topic
 
Author
Message

Omen ®

Longevity: 6 years 5 months

Posts: 181112

Торрент-статистика

Post 15-Jan-2013 00:20

[Quote]

-Лев Гурыч Синичкин (1974) [H.264] DVDRip- Русское название: Лев Гурыч Синичкин
Год выпуска: 1974
Жанр: Музыкальная комедия
Описание фильма:
Телефильм. Экранизация старого русского водевиля Д.Ленского (предыдущая киноверсия 1956г. - "На подмостках сцены" К.Юдина). Старый актер мечтает о главной роли для своей юной талантливой дочери. Однако ей противостоит могущественная примадонна труппы с ужасным характером и большими связями. После ряда усилий героев и веселых недоразумений мечта старика сбывается, а стерва-премьерша посрамлена вместе со своим высоким покровителем. Работа Н.Мордюковой в роли премьерши Сурмиловой - одна из лучших ее комедийных работ
Режиссер: Александр Белинский
Актеры: Николай Трофимов, Галина Федотова, Нонна Мордюкова, Леонид Куравлёв, Олег Табаков, Михаил Козаков, Андрей Миронов, Пётр Щербаков, Роман Ткачук
Продолжительность: 01:12:14

Видеокодек: MPEG-4 AVC/H.264
Битрейт видео: ~1958 Кбит/сек
Размер кадра: 768x576
Качество видео: DVDRip
Аудиокодек: AC3 2.0
Битрейт аудио: 256 Кбит/сек

MediaInfo:

Общее
Уникальный идентификатор : 168348648403719580577546155723716462494 (0x7EA6C532C2870C1E037BA147C20E879E)
Полное имя : \\VOVAUS\rip\гот\LEV_GURICH_SINICHKIN\LEV_GURICH_SINICHKIN.mkv
Формат : Matroska
Версия формата : Version 2
Размер файла : 1,14 Гбайт
Продолжительность : 1 ч. 12 м.
Общий поток : 2259 Кбит/сек
Программа кодирования : Lavf51.12.1
Библиотека кодирования : Lavf51.12.1
Видео
Идентификатор : 1
Формат : AVC
Формат/Информация : Advanced Video Codec
Профиль формата : [url=mailto:[email protected]][email protected][/url]
Параметр CABAC формата : Нет
Параметр ReFrames формата : 2 кадра
Идентификатор кодека : V_MPEG4/ISO/AVC
Продолжительность : 1 ч. 12 м.
Битрейт : 1958 Кбит/сек
Ширина : 768 пикселей
Высота : 576 пикселей
Соотношение сторон : 4:3
Режим частоты кадров : Постоянный
Частота кадров : 25,000 кадров/сек
Стандарт вещания : PAL
Цветовое пространство : YUV
Субдискретизация насыщенности : 4:2:0
Битовая глубина : 8 бит
Тип развёртки : Прогрессивная
Бит/(Пиксели*Кадры) : 0.177
Размер потока : 1012 Мбайт (87%)
Default : Да
Forced : Нет
Основные цвета : BT.601 PAL
Характеристики трансфера : BT.470 System B, BT.470 System G
Коэффициенты матрицы : BT.601
Аудио
Идентификатор : 2
Формат : AC-3
Формат/Информация : Audio Coding 3
Расширение режима : CM (complete main)
Параметр Endianness формата : Big
Идентификатор кодека : A_AC3
Продолжительность : 1 ч. 12 м.
Вид битрейта : Постоянный
Битрейт : 256 Кбит/сек
Каналы : 2 канала
Расположение каналов : Front: L R
Частота : 48,0 КГц
Битовая глубина : 16 бит
Метод сжатия : С потерями
Размер потока : 132 Мбайт (11%)
Default : Да
Forced : Нет
Скриншоты:
         
         
Other forum [Profile] [PM]
Display posts from previous:    
Reply to topic

The time now is: Today 15:50

All times are GMT + 3 Hours



You cannot post new topics in this forum
You cannot reply to topics in this forum
You cannot edit your posts in this forum
You cannot delete your posts in this forum
You cannot vote in polls in this forum
You cannot attach files in this forum
You cannot download files in this forum