Сегодня идет свободное скачивание без начисления Download

Последний гайдук (1972 ) VHSRip

Ответить на тему
 
Автор
Сообщение

Omen ®

Стаж: 6 лет

Сообщений: 184329

Торрент-статистика

Пост 15-Янв-2013 00:20

[Цитировать]

-Последний гайдук (1972 )VHSRip Режиссер: Валериу Гажиу
Страна: СССР
Производство: Молдова-филм
Год: 1972
Премьера: 23 июля 1973
Жанр: биография, исторический фильм
Актеры: Валерий Гатаев, Земфира Цахилова, Пеэтер Кард, Виктор Чутак, Гурген Тонунц, Константин Константинов, Леонид Марков, Анатолий Азо, Ион Аракелу, Мирза Бабаев, Марика Балан, Алексей Бахарь, Михаил Голубович, Григоре Григориу, Домника Дариенко, Екатерина Казимирова, Думитру Маржине
Описание
О романтической юности легендарного комдива, героя гражданской войны Г.И.Котовского (1881-1925). Неопытный борец против помещичьего произвола под влиянием революционных событий в России становится профессиональным революционером.Совершив дерзкий побег с Нерчинской каторги, Котовский (актер В. Гатаев) организует дружину народных мстителей — гайдуков, напа­дает на помещичьи усадьбы, возвращает крестьянам деньги, награб­ленные у них помещиками.
Постепенно, под влиянием большевиков, Котовский начинает пони­мать, что в одиночку с царским самодержавием не справиться. Во вре­мя первой мировой войны он проходит суровую школу классового вос­питания.
В финале фильма последний гайдук, теперь уже командир револю­ционных солдат, Григорий Котовский во главе конного отряда вступает в бой.
«...Еще не осознавая и не охватывая умом всей работы большеви­ков, я по интуиции присоединяюсь к ним, как к партии, которая мне наиболее близка и к которой я близок по своей психике.
"Я был по натуре и психологии человеком реального действия. Я насилием и террором отбирал у богача-эксплуататора ценности, кото­рые ему по праву не принадлежали, и передавал их тем, кто эти бо­гатства создавал своим трудом, своей кровью и потом. Я, не зная пар­тии, уже был большевиком...»Котовский написал это в 1920 году в автобиографии, приложенной к заявлению о приеме в партию большевиков.

Продолжительность: 01:32:00
релиз
Качество: VHSRip
Формат: AVI
Видео кодек: DivX 5
Аудио кодек: MP3
Видео: 688x272 ~1900kbps
Аудио: MPEG Layer 3~128.00 kbps
Качество видео далеко от идеала - смотрим СЭМПЛ

Mediainfo

Общее
Полное имя : D:\KINO\кино\ФИЛЬМЫ ОДИНОЧНЫЕ\Posledniy.gayduk.1972.XviD.VHSRip.avi
Формат : AVI
Формат/Информация : Audio Video Interleave
Размер файла : 1,37 Гбайт
Продолжительность : 1 ч. 32 м.
Общий поток : 2108 Кбит/сек
Программа кодирования : FairUse Wizard - http://fairusewizard.com
Библиотека кодирования : The best and REALLY easy backup tool
Видео
Идентификатор : 0
Формат : MPEG-4 Visual
Параметр BVOP формата : 1
Параметр QPel формата : Нет
Параметр GMC формата : Без точки перехода
Параметр матрицы формата : Default (H.263)
Режим смешивания : Сжатый битовый поток
Идентификатор кодека : DX50
Идентификатор кодека/Подсказка : DivX 5
Продолжительность : 1 ч. 32 м.
Битрейт : 1888 Кбит/сек
Ширина : 688 пикселей
Высота : 272 пикселя
Соотношение сторон : 2,529
Частота кадров : 25,000 кадров/сек
Цветовое пространство : YUV
Субдискретизация насыщенности : 4:2:0
Битовая глубина : 8 бит
Тип развёртки : Прогрессивная
Метод сжатия : С потерями
Бит/(Пиксели*Кадры) : 0.404
Размер потока : 1,23 Гбайт (90%)
Библиотека кодирования : DivX 6.8.5 (UTC 2009-08-20)
Аудио
Идентификатор : 1
Формат : MPEG Audio
Версия формата : Version 1
Профиль формата : Layer 3
Режим : Joint stereo
Расширение режима : MS Stereo
Идентификатор кодека : 55
Идентификатор кодека/Подсказка : MP3
Продолжительность : 1 ч. 32 м.
Вид битрейта : Постоянный
Битрейт : 128 Кбит/сек
Каналы : 2 канала
Частота : 48,0 КГц
Метод сжатия : С потерями
Размер потока : 85,1 Мбайт (6%)
Выравнивание : Соединение по промежуткам
Скриншоты
       
Время раздачи 7/24
Вне форума [Профиль] [ЛС]
Похожие темы
Форум Тема Автор Торрент Отв. Посл. сообщение
./templates/default/images/folder_dl.gif Отечественные cериалы ОТРЫВ / Серии: 1-8 из 8 / (Сергей Попов) [2012, остросюжетная послевоенная драма, WEB-DLRip 720p] Omen
1 | 0

0 | 339

4

2013-06-03 00:25
Omen Последнее
./templates/default/images/folder_dl.gif Новинки (BD|HDTV|DVD) Последствия / Aftermath (Эллиотт Лестер) [2017, Триллер, Драма, WEB-DLRip 1080p] MVO (MUZOBOZ) Omen
1 | 0

0 | 1263

13

2016-03-09 09:31
Omen Последнее
./templates/default/images/folder_dl.gif Компьютерная литература Михаил Пантаев | Матанализ с человеческим лицом, или Как выжить после предельного перехода. Полный курс математического анализа. Том 2 (2016) [PDF] moralis
1 | 0

0 | 1994

18

2016-03-09 21:50
moralis Последнее
./templates/default/images/folder_dl.gif Справочники, энциклопедии и словари Михаил Пантаев | Матанализ с человеческим лицом, или Как выжить после предельного перехода. Полный курс математического анализа. Том 1 (2015) [PDF] moralis
1 | 0

0 | 1920

14

2016-03-09 21:51
moralis Последнее
./templates/default/images/folder_dl.gif Новинки (BD|HDTV|DVD) Последний богатырь (Дмитрий Дьяченко) [2017, комедия, семейный, фэнтези, WEB-DL 1080p] | iTunes Theseus
1 | 0

0 | 3322

34

2017-12-07 23:43
Theseus Последнее
./templates/default/images/folder_dl.gif Фантастика, фэнтези, ужасы, мистика Василий Сахаров | Последыш Древних (2018) [MP3] }{@R0N
1 | 0

0 | 464

9

2018-02-25 20:21
}{@R0N Последнее
./templates/default/images/folder_dl.gif Новинки (BD|HDTV|DVD) Звёздные войны: Последние джедаи / Star Wars: The Last Jedi (Райан Джонсон) [2017, фантастика, фэнтези, боевик, приключения, UHD BDRemux 2160p] DUB | iTunes Theseus
1 | 0

0 | 775

5

2018-03-15 14:03
Theseus Последнее
./templates/default/images/folder_dl.gif Новинки (HD|DVD|BD|WEB|TV|SAT|PDTV|-Rip) Миссия невыполнима: Последствия / Mission: Impossible - Fallout (Кристофер МакКуорри) [2018 г., боевик, триллер, приключения, WEBRip] MVO | MUZOBOZ Theseus
1 | 0

0 | 1107

24

2018-09-15 14:33
Theseus Последнее
Показать сообщения:    
Ответить на тему

Текущее время: Сегодня 18:47

Часовой пояс: GMT + 3



Вы не можете начинать темы
Вы не можете отвечать на сообщения
Вы не можете редактировать свои сообщения
Вы не можете удалять свои сообщения
Вы не можете голосовать в опросах
Вы не можете прикреплять файлы к сообщениям
Вы не можете скачивать файлы