Today is a free download without charge Download

Последний гайдук (1972 ) VHSRip

Reply to topic
 
Author
Message

Omen ®

Longevity: 6 years 5 months

Posts: 171875

Торрент-статистика

Post 15-Jan-2013 00:20

[Quote]

-Последний гайдук (1972 )VHSRip Режиссер: Валериу Гажиу
Страна: СССР
Производство: Молдова-филм
Год: 1972
Премьера: 23 июля 1973
Жанр: биография, исторический фильм
Актеры: Валерий Гатаев, Земфира Цахилова, Пеэтер Кард, Виктор Чутак, Гурген Тонунц, Константин Константинов, Леонид Марков, Анатолий Азо, Ион Аракелу, Мирза Бабаев, Марика Балан, Алексей Бахарь, Михаил Голубович, Григоре Григориу, Домника Дариенко, Екатерина Казимирова, Думитру Маржине
Описание
О романтической юности легендарного комдива, героя гражданской войны Г.И.Котовского (1881-1925). Неопытный борец против помещичьего произвола под влиянием революционных событий в России становится профессиональным революционером.Совершив дерзкий побег с Нерчинской каторги, Котовский (актер В. Гатаев) организует дружину народных мстителей — гайдуков, напа­дает на помещичьи усадьбы, возвращает крестьянам деньги, награб­ленные у них помещиками.
Постепенно, под влиянием большевиков, Котовский начинает пони­мать, что в одиночку с царским самодержавием не справиться. Во вре­мя первой мировой войны он проходит суровую школу классового вос­питания.
В финале фильма последний гайдук, теперь уже командир револю­ционных солдат, Григорий Котовский во главе конного отряда вступает в бой.
«...Еще не осознавая и не охватывая умом всей работы большеви­ков, я по интуиции присоединяюсь к ним, как к партии, которая мне наиболее близка и к которой я близок по своей психике.
"Я был по натуре и психологии человеком реального действия. Я насилием и террором отбирал у богача-эксплуататора ценности, кото­рые ему по праву не принадлежали, и передавал их тем, кто эти бо­гатства создавал своим трудом, своей кровью и потом. Я, не зная пар­тии, уже был большевиком...»Котовский написал это в 1920 году в автобиографии, приложенной к заявлению о приеме в партию большевиков.

Продолжительность: 01:32:00
релиз
Качество: VHSRip
Формат: AVI
Видео кодек: DivX 5
Аудио кодек: MP3
Видео: 688x272 ~1900kbps
Аудио: MPEG Layer 3~128.00 kbps
Качество видео далеко от идеала - смотрим СЭМПЛ

Mediainfo

Общее
Полное имя : D:\KINO\кино\ФИЛЬМЫ ОДИНОЧНЫЕ\Posledniy.gayduk.1972.XviD.VHSRip.avi
Формат : AVI
Формат/Информация : Audio Video Interleave
Размер файла : 1,37 Гбайт
Продолжительность : 1 ч. 32 м.
Общий поток : 2108 Кбит/сек
Программа кодирования : FairUse Wizard - http://fairusewizard.com
Библиотека кодирования : The best and REALLY easy backup tool
Видео
Идентификатор : 0
Формат : MPEG-4 Visual
Параметр BVOP формата : 1
Параметр QPel формата : Нет
Параметр GMC формата : Без точки перехода
Параметр матрицы формата : Default (H.263)
Режим смешивания : Сжатый битовый поток
Идентификатор кодека : DX50
Идентификатор кодека/Подсказка : DivX 5
Продолжительность : 1 ч. 32 м.
Битрейт : 1888 Кбит/сек
Ширина : 688 пикселей
Высота : 272 пикселя
Соотношение сторон : 2,529
Частота кадров : 25,000 кадров/сек
Цветовое пространство : YUV
Субдискретизация насыщенности : 4:2:0
Битовая глубина : 8 бит
Тип развёртки : Прогрессивная
Метод сжатия : С потерями
Бит/(Пиксели*Кадры) : 0.404
Размер потока : 1,23 Гбайт (90%)
Библиотека кодирования : DivX 6.8.5 (UTC 2009-08-20)
Аудио
Идентификатор : 1
Формат : MPEG Audio
Версия формата : Version 1
Профиль формата : Layer 3
Режим : Joint stereo
Расширение режима : MS Stereo
Идентификатор кодека : 55
Идентификатор кодека/Подсказка : MP3
Продолжительность : 1 ч. 32 м.
Вид битрейта : Постоянный
Битрейт : 128 Кбит/сек
Каналы : 2 канала
Частота : 48,0 КГц
Метод сжатия : С потерями
Размер потока : 85,1 Мбайт (6%)
Выравнивание : Соединение по промежуткам
Скриншоты
       
Время раздачи 7/24
Other forum [Profile] [PM]
Similar theme
Forum Topic Author Torrent Replies Last Post
./templates/default/images/folder_dl.gif Новинки (BD|HDTV|DVD) Звёздные войны: Последние джедаи / Star Wars: The Last Jedi (Райан Джонсон) [2017, фантастика, фэнтези, боевик, приключения, UHD BDRemux 2160p] DUB | iTunes Theseus
1 | 0

0 | 1243

7

2018-03-15 14:03
Theseus Latest
Display posts from previous:    
Reply to topic

The time now is: Today 05:17

All times are GMT + 3 Hours



You cannot post new topics in this forum
You cannot reply to topics in this forum
You cannot edit your posts in this forum
You cannot delete your posts in this forum
You cannot vote in polls in this forum
You cannot attach files in this forum
You cannot download files in this forum