Today is a free download without charge Download

Марьина роща [1-4 серия из 16] (2013) SATRip [Обновляемая]

Reply to topic
 
Author
Message

Omen ®

Longevity: 8 years 11 months

Posts: 181086

Торрент-статистика

Post 15-Jan-2013 00:20

[Quote]

-Марьина Роща [1-4 серия из 16] (2013) SATRip [Обновляемая]- Русское название: Марьина Роща
Производство: Россия
Год выпуска: 2013
Жанр: Драма, Детектив, История
Перевод: Не требуется (Русский)

Режиссер: Александр Хван
Актеры: Александр Домогаров, Евгения Крюкова, Виталий Кудрявцев, Сергей Комаров (II), Савва Гусев, Елена Доронина (IV), Яна Львова, Наталья Литвинова, Виктор Тереля, Дмитрий Смирнов (V), Артем Лысков, Виталий Горшков, Виктор Маркин (II), Олег Алмазов, Сергей Потапов (II), Юрий Шлыков, Борис Романов, Константин Желдин, Петр Зайченко, Ольга Науменко, Татьяна Мухина (III), Егор Баринов, Людмила Давыдова (II), Ирина Гордина, Полина Лунегова, Татьяна Чернопятова, Алексей Михайлов (II), Ксения Баринова, Игорь Филиппов, Дмитрий Гусев, Евгений Харланов, Михаил Горский, Анастасия Платонова, Сергей Дьячков, Константин Глушков, Михаил Солодко, Максим Макаров, Игорь Огурцов, Сергей Василюк, Анна Гуляренко, Георгий Пицхелаури, Павел Абраменков, Артем Кобзев, Андрей Лукьянов, Наталья Паламожных, Андрей Тартаков, Артем Хван, Сергей Неробеев, Вадим Померанцев, Павел Крайнов, Марина Блейк, Станислав Житарев, Сергей Неудачин, Сергей Тезов, Любовь Фирсова, Георгий Панагопулос, Андрей Сорока, Сергей Кагаков, Андрей Арзяев, Степан Куликов, Анна Селедец, Владимир Кебин, Артур Сопельник, Анастасия Пронина, Евгений Данчевский, Александр Обласов, Василий Слюсаренко, Вадим Александров, Юлия Салмина, Николай Качура
Описание фильма:
Легендарная Марьина роща - один из районов Москвы, который на протяжении нескольких десятилетий становился приютом для тех, кто не в ладу с законом - спекулянтов, мошенников и воришек. Здесь всегда можно было приобрести поддельные документы, фальшивые ассигнации или сбыть краденое. Но в 40-х годах разгул бандитизма здесь приобретает невиданный размах. Расцвет "воровских малин" и притонов, дерзкие налеты, грабежи и убийства – явления, с которыми милиция была не в силах справиться.
Продолжительность: 4 х ~ 00:43:57 серия
Качество видео: SATRip
Видеокодек: DivX 5
Битрейт видео: ~1499 Kbit/s
Размер кадра: 720 х 400
Аудиокодек: MP3, 2.0
Битрейт аудио: 128 Kbit/sВнимание! Раздача ведётся путём добавления новых серий

Внимание! Раздача ведётся путём добавления новых серий. Описание обновления торрента.

Внимание! Раздача ведётся путём добавления новых серий; при каждом добавлении создётся новый торрент. Чтобы начать докачку новой серии, пользователям необходимо сделать следующее:
(1) остановить скачивание,
(2) удалить старый торрент у себя из клиента (старые серии удалять не надо),
(3) скачать новый торрент и запустить его у себя в клиенте вместо старого, при этом указать клиенту путь в старую папку куда и должно происходить скачивание новых серий.
Ваш клиент при этом должен произвести хеширование (проверку) старой папки (если не производит сам - помогите ему сделать это), и будет докачивать только те серии которых у вас ещё нет. Старые серии при этом не удаляются, а продолжают раздаваться!
Eсли вы уже удалили старые серии, то предотвратить повторную закачку старых серий можно, отжав галочку в соответсвующих местах при запуске нового торрента. По возможности, желательно не удалять старые серии как можно дольше чтобы релизёр не столько продолжал раздавать старые серии, а смог сконцентрироваться на новых.

MediaInfo

Общее
Полное имя : D:\Торренты\Марьина роща. 2013. SATRip\Марьина роща.01.avi
Формат : AVI
Формат/Информация : Audio Video Interleave
Размер файла : 516 Мбайт
Продолжительность : 43 м.
Общий поток : 1640 Кбит/сек
Библиотека кодирования : Boilsoft AVI tool build 1/release
Видео
Идентификатор : 0
Формат : MPEG-4 Visual
Профиль формата : [email protected]
Параметр BVOP формата : Нет
Параметр QPel формата : Нет
Параметр GMC формата : Без точки перехода
Параметр матрицы формата : Default (H.263)
Идентификатор кодека : DX50
Идентификатор кодека/Подсказка : DivX 5
Продолжительность : 43 м.
Битрейт : 1499 Кбит/сек
Ширина : 720 пикс.
Высота : 400 пикс.
Соотношение сторон : 16:9
Частота кадров : 25,000 кадр/сек
Цветовое пространство : YUV
Подвыборка цветности : 4:2:0
Битовая глубина : 8 бит
Тип развёртки : Прогрессивная
Метод сжатия : С потерями
Бит/(Пиксели*Кадры) : 0.208
Размер потока : 472 Мбайт (91%)
Библиотека кодирования : XviD 1.2.1 (UTC 2008-12-04)
Аудио
Идентификатор : 1
Формат : MPEG Audio
Версия формата : Version 1
Профиль формата : Layer 3
Режим : Joint stereo
Расширение режима : MS Stereo
Идентификатор кодека : 55
Идентификатор кодека/Подсказка : MP3
Продолжительность : 43 м.
Вид битрейта : Постоянный
Битрейт : 128 Кбит/сек
Каналы : 2 канала
Частота : 48,0 КГц
Метод сжатия : С потерями
Размер потока : 40,2 Мбайт (8%)
Выравнивание : Соединение по промежуткам
Продолжительность промежутка : 24 мс. (0,60 видеокадр)
Время предзагрузки промежутка : 504 ms
Библиотека кодирования : LAME3.98.2
Скриншоты:
           
Время раздачи: 24/7 по возможности
Other forum [Profile] [PM]
Display posts from previous:    
Reply to topic

The time now is: Today 10:10

All times are GMT + 3 Hours



You cannot post new topics in this forum
You cannot reply to topics in this forum
You cannot edit your posts in this forum
You cannot delete your posts in this forum
You cannot vote in polls in this forum
You cannot attach files in this forum
You cannot download files in this forum