Today is a free download without charge Download

Тайны института благородных девиц / Серии: 1 из 220 (Сергей Данелян, Сахат Дурсунов) [2012-2013, драма, SATRip]

Reply to topic
 
Author
Message

Omen ®

Longevity: 8 years 11 months

Posts: 181086

Торрент-статистика

Post 14-Jan-2013 23:04

[Quote]

Тайны института благородных девиц -Год выпуска: 2012-2013
Производство: Россия, Студия "Гармония"
Жанр: драма
Продолжительность: 00:44:19
Режиссёр: Сергей Данелян, Сахат Дурсунов-В ролях: Алиса Сапегина, Дарья Егорова, Алина Кизиярова, Сергей Колесников, Екатерина Иванова, Софья Донианц, Мария Кононова, Людмила Кожевникова, Ирэна Морозова, Сергей Астахов, Елена Дубровская, Александр Корженков, Ирина Линдт, Алена Созинова, Алексей Франдетти, Алексей Фаддеев, Юлия Кокрятская, Ирина Шевчук, Владислав Дунаев, Дмитрий Калязин, Дмитрий Воронин (III), Константин Баев, Елизавета Разина, Лилия Хасанова, Анна Леванова, Ирина Фролова, Дарья Андреева, Александр Бобровский, Олег Евтеев, Владимир Демидов, Александр Зуев, Владимир Гориславец, Светлана Нехороших, Дмитрий Варшавский-Описание: Продолжение телесериала "Институт благородных девиц" В институт благородных девиц, который теперь возглавляет Софья (ее, как и в первом сезоне, играет Алиса Сапегина), приходят новые девушки. Юной Лизе Вишневецкой (эту новую роль исполняет актриса Алина Кизиярова) предстоит пройти непростые испытания. Только смелость и благородство графа Воронцова, Софьи и, конечно же, помощь подружек Лизы из «Союза горячих сердец» помогут избежать страшного финала. Приключения, похищения, побеги, крепкая дружба, романтические встречи и настоящая любовь — всем этим будет наполнен новый сезон.-Доп.информация:
Любая реклама ОТСУТСТВУЕТ!--Сэмпл-Качество: SATRip
Формат: AVI
Видео кодек: XviD
Аудио кодек: MP3
Видео: 704x400 (1.76:1), 25 fps, XviD build 50 ~1557 kbps avg, 0.22 bit/pixel
Аудио: 48 kHz, MPEG Layer 3, 2 ch, ~192.00 kbps avg

MI

ОбщееПолное имя : D:\Раздачи\Tainu.instityta.blagorodnuh.devic.2012.SATRip\Tainu.instityta.blagorodnuh.devic.(001.seriya).2012.SATRip.aviФормат : AVIФормат/Информация : Audio Video InterleaveРазмер файла : 558 МбайтПродолжительность : 44 м.Общий поток : 1759 Кбит/секПрограмма кодирования : VirtualDubMod 1.5.10.3 | www.virtualdub-fr.org || (build 2550/release)Библиотека кодирования : Boilsoft AVI tool build 1/release
ВидеоИдентификатор : 0Формат : MPEG-4 VisualПрофиль формата : Advanced [email protected]Параметр BVOP формата : 2Параметр QPel формата : НетПараметр GMC формата : Без точки переходаПараметр матрицы формата : ВыборочнаяИдентификатор кодека : XVIDИдентификатор кодека/Подсказка : XviDПродолжительность : 44 м.Битрейт : 1558 Кбит/секШирина : 704 пикселяВысота : 400 пикселейСоотношение сторон : 16:9Частота кадров : 25,000 кадров/секЦветовое пространство : YUVСубдискретизация насыщенности : 4:2:0Битовая глубина : 8 битТип развёртки : ПрогрессивнаяМетод сжатия : С потерямиБит/(Пиксели*Кадры) : 0.221Размер потока : 494 Мбайт (89%)Библиотека кодирования : XviD 1.2.1 (UTC 2008-12-04)
АудиоИдентификатор : 1Формат : MPEG AudioВерсия формата : Version 1Профиль формата : Layer 3Режим : Joint stereoРасширение режима : MS StereoИдентификатор кодека : 55Идентификатор кодека/Подсказка : MP3Продолжительность : 44 м.Вид битрейта : ПостоянныйБитрейт : 192 Кбит/секКаналы : 2 каналаЧастота : 48,0 КГцМетод сжатия : С потерямиРазмер потока : 60,9 Мбайт (11%)Выравнивание : Соединение по промежуткамПродолжительность промежутка : 40 мс. (1,00 видеокадр)Время предзагрузки промежутка : 504 мс.Библиотека кодирования : LAME3.98rНастройки программы : -m j -V 4 -q 2 -lowpass 18.6 -b 192

Скриншоты

Внимание! Раздача ведётся путём добавления новых серий. Описание обновления торрента:

Внимание! Раздача ведётся путём добавления новых серий; при каждом добавлении создётся новый торрент. Чтобы начать докачку новой серии, пользователям необходимо сделать следующее:
(1) остановить скачивание,
(2) удалить старый торрент у себя из клиента (старые серии удалять не надо),
(3) скачать новый торрент и запустить его у себя в клиенте вместо старого, при этом указать клиенту путь в старую папку куда и должно происходить скачивание новых серий.
Ваш клиент при этом должен произвести хеширование (проверку) старой папки (если не производит сам - помогите ему сделать это), и будет докачивать только те серии которых у вас ещё нет. Старые серии при этом не удаляются, а продолжают раздаваться!
Eсли вы уже удалили старые серии, то предотвратить повторную закачку старых серий можно, отжав галочку в соответсвующих местах при запуске нового торрента. По возможности, желательно не удалять старые серии как можно дольше чтобы релизёр не столько продолжал раздавать старые серии, а смог сконцентрироваться на новых
Other forum [Profile] [PM]
Similar theme
Forum Topic Author Torrent Replies Last Post
./templates/default/images/folder_dl.gif Приключения и квесты Secrets of the Dark: The Flower of Shadow Collector\'s Edition / Тайны Тьмы: Цветок Теней. Коллекционное издание [P] [RUS / ENG] (2014) Omen
2 | 0

0 | 2164

23

2015-06-11 12:04
Omen Latest
Display posts from previous:    
Reply to topic

The time now is: Today 10:23

All times are GMT + 3 Hours



You cannot post new topics in this forum
You cannot reply to topics in this forum
You cannot edit your posts in this forum
You cannot delete your posts in this forum
You cannot vote in polls in this forum
You cannot attach files in this forum
You cannot download files in this forum