Today is a free download without charge Download

Защита Красина 2 / Сезон: 2 Серии: 1-12 из 12 (Алексей Богданов) [2008, детектив, криминал, DVB]

Reply to topic
 
Author
Message

Omen ®

Longevity: 8 years 11 months

Posts: 181086

Торрент-статистика

Post 14-Jan-2013 23:04

[Quote]

Защита Красина 2
Год выпуска: 2008
Производство: Студия "Панорама"
Жанр: детектив, криминал
Продолжительность: ~0:45:00 серия
Субтитры: отсутствуют
Режиссёр: Алексей Богданов
В ролях: Юрий Архангельский, Марина Коняшкина, Александр Саюталин, Михаил Лучко, Наталья Ткаченко, Владимир Постников, Леонид Улащенко, Юрис Лауциньш, Александр Карпухов, Павел Юлку, Юрий Ковалёв, Александр Солоненко, Сергей Русскин, Антон Багров, Леонид Михайловский, Максим Меркулов, Ульяна Похлебаева, Анастасия Лифанова, Константин Воробьёв, Михаил Левит, Борис Клюев, Евгений Филатов, Ида Маре Линштедт, Светлана Селезнёва, Дмитрий Аверин, Сергей Цепов
Описание: Олег Красин, который с недавних пор вернулся к своим обязанностям начальника отдела по расследованию умышленных убийств, узнает о гибели своего старого друга - директора крупного целлюлозно-бумажного комбината Ивана Митрофанова. Прибыв на место происшествия, Сосновский и Касин обнаруживают брошенную служебную "Волгу" рядом с трупами директора и его водителя. Внешне происшествие напоминает банальный разбой. Однако полковника сразу же настораживает тот факт, что Митрофанов погиб по дороге на фабрику, рейдерский захват которой как раз готовил крупный региональный бизнесмен Арнольд Опрятин. Разоблачение этого криминального дельца и, по совместительству, местного депутата, давно стало главной задачей городских спецслужб. В этом деле им должен пригодиться уникальный опыт Красина по защите особо важных свидетелей...
Релиз: -Все раздачи сериала / Сэмпл-Качество: DVB (ABS 1 at 75.0°E)
Формат: MPEG-PS
Видео кодек: MPEG2
Аудио кодек: MP2
Видео: MPEG 2, 720x576 (4:3), 25.000 fps, 5142 Kbps (0.496 bit/pixel)
Аудио: MP2, 48.0 KHz, 2 ch, 192 Kbps, CBR

MediaInfo

ОбщееПолное имя : L:\Раздачи\Защита Красина 2\Защита Красина 2.01.mpgФормат : MPEG-PSРазмер файла : 1,67 ГбайтПродолжительность : 43 м.Режим общего битрейта : ПеременныйОбщий поток : 5441 Кбит/секБиблиотека кодирования : (c) 1998-2012 Womble Multimedia, Inc. / MPEG Video Wizard DVD 5.0.1.100 (03/2011) / Sep 7 2012
ВидеоИдентификатор : 224 (0xE0)Формат : MPEG VideoВерсия формата : Version 2Профиль формата : [email protected]Параметр BVOP формата : ДаПараметр матрицы формата : ВыборочнаяПараметр GOP формата : VariableПродолжительность : 43 м.Вид битрейта : ПеременныйБитрейт : 5140 Кбит/секМаксимальный битрейт : 15,0 Мбит/секШирина : 720 пикселейВысота : 576 пикселейСоотношение сторон : 4:3Частота кадров : 25,000 кадров/секСтандарт вещания : PALЦветовое пространство : YUVСубдискретизация насыщенности : 4:2:0Битовая глубина : 8 битТип развёртки : ЧересстрочнаяПорядок развёртки : Верхнее поле первоеМетод сжатия : С потерямиБит/(Пиксели*Кадры) : 0.496Размер потока : 1,57 Гбайт (94%)Выравнивание : (c) 1998-2012 Womble Multimedia, Inc. / MPEG Video Wizard DVD 5.0.1.100 (03/2011) / Sep 7 2012Заголовок : (c) 1998-2012 Womble Multimedia, Inc. / MPEG Video Wizard DVD 5.0.1.100 (03/2011) / Sep 7 2012Библиотека кодирования : (c) 1998-2012 Womble Multimedia, Inc. / MPEG Video Wizard DVD 5.0.1.100 (03/2011) / Sep 7 2012
АудиоИдентификатор : 192 (0xC0)Формат : MPEG AudioВерсия формата : Version 1Профиль формата : Layer 2Продолжительность : 43 м.Вид битрейта : ПостоянныйБитрейт : 192 Кбит/секКаналы : 2 каналаЧастота : 48,0 КГцМетод сжатия : С потерямиЗадержка видео : -80 мс.Размер потока : 60,2 Мбайт (4%)
Меню

Скриншоты


Other forum [Profile] [PM]
Display posts from previous:    
Reply to topic

The time now is: Today 13:52

All times are GMT + 3 Hours



You cannot post new topics in this forum
You cannot reply to topics in this forum
You cannot edit your posts in this forum
You cannot delete your posts in this forum
You cannot vote in polls in this forum
You cannot attach files in this forum
You cannot download files in this forum